img image001 image001 image001 image001 image001 image001 image001 image001 image001 image001 image001 image001 image001 image001 image001

Planets Sun Sun Sun
Статистика раздачи
Автор: PriZraK | Размер: 5.28 ГБ | Добавлен: 15 фев 2014
Раздают: 55    Качают: 5
Скачать торрент
Скачать торрент
Описание торрента

СообщениеДобавлено: 15 фев 2014 




Оригинальное название: Край
Год выпуска: 2010
Жанр: Драма
Выпущено: Россия, Централ Партнершип, ТПО Рок
Режиссер: Алексей Учитель
В ролях: Владимир Машков, Аньорка Штрехель, Юлия Пересильд, Сергей Гармаш, Алексей Горбунов, Вячеслав Крикунов, Александр Баширов, Евгений Ткачук, Владас Багдонас, Анна Уколова, Рубен Карапетян, Наталия Кадочникова, Вадим Яковлев (II), Татьяна Рябоконь, Артемий Гринченко, Мария Семенова, Cемен Белоцерковский, Сергей Малахов (II), Динара Янковская

О фильме: В августе 1945-го в далёкий посёлок с названием "Край" с войны возвращается бывший танкист Игнат, чья страсть — паровозы. Он узнаёт, что на уединённом острове с довоенных времён брошен немецкий паровоз, и принимается его восстанавливать. Но оказывается у паровоза уже есть имя — «Густав» и есть хозяйка — Эльза, дочь немецкого инженера, арестованного в начале войны. Да и для сельчан одержимый мечтой свободный Игнат — чужак. Страсти закипают шекспировские, причём в них задействованы не только люди, но и несколько паровозов, почти живые существа, у каждого своё имя…

Качество: BDRip 720p
Видео: MPEG-4 AVC, 5360 Кбит/с, 1280x720
Аудио: AC3, 6 ch, 640 Кбит/с
Размер: 5.28 ГБ
Продолжительность: 02:03:33
Язык: Русский
Субтитры: Английские

Исходник: Marchik60 (Кинозал)

Сравнение с исходником



Золотой глобус, 2011 год
Номинации (1):
Лучший фильм на иностранном языке
Золотой орел, 2011 год
Победитель (4):
Лучший режиссер (Алексей Учитель)
Лучшая женская роль (Аньорка Штрехель)
Лучшая мужская роль (Владимир Машков)
Лучшая женская роль второго плана (Юлия Пересильд)

Номинации (4):
Лучший фильм
Лучший сценарий
Лучшая работа оператора
Лучший монтаж

Ника, 2011 год
Победитель (3):
Лучший фильм
Лучшая мужская роль (Владимир Машков)
Лучшая работа оператора

Номинации (6):
Лучшая женская роль (Аньорка Штрехель)
Лучшая женская роль второго плана (Юлия Пересильд)
Лучший режиссер (Алексей Учитель)
Лучшие костюмы
Лучший звук
Лучшая работа художника-постановщика
Жорж, 2011 год
Номинации (1):
Лучшая российская драма
Общее
Уникальный идентификатор : 198733451793265067064886362167138599447 (0x9582ABAADE8A982BBC5059BC10844217)
Полное имя : E:VideoKraj.2010.x264.BDRip.720p.mkv
Формат : Matroska
Версия формата : Version 4 / Version 2
Размер файла : 5,28 Гбайт
Продолжительность : 2 ч. 3 м.
Общий поток : 6122 Кбит/сек
Название фильма : Край / 2010 / BDRip -- STaranklov
Дата кодирования : UTC 2013-11-09 13:06:32
Программа кодирования : mkvmerge v6.4.1 ('Omega Point') built on Sep 16 2013 22:05:10
Библиотека кодирования : libebml v1.3.0 + libmatroska v1.4.1

Видео
Идентификатор : 1
Формат : AVC
Формат/Информация : Advanced Video Codec
Профиль формата : High@L4.1
Параметр CABAC формата : Да
Параметр ReFrames формата : 9 кадров
Идентификатор кодека : V_MPEG4/ISO/AVC
Продолжительность : 2 ч. 3 м.
Битрейт : 5360 Кбит/сек
Ширина : 1280 пикселей
Высота : 720 пикселей
Соотношение сторон : 16:9
Режим частоты кадров : Постоянный
Частота кадров : 24,000 кадра/сек
Цветовое пространство : YUV
Субдискретизация насыщенности : 4:2:0
Битовая глубина : 8 бит
Тип развёртки : Прогрессивная
Бит/(Пиксели*Кадры) : 0.242
Размер потока : 4,63 Гбайт (88%)
Библиотека кодирования : x264 core 133 r2334 a3ac64b
Настройки программы : cabac=1 / ref=9 / deblock=1:-1:-1 / analyse=0x3:0x113 / me=umh / subme=10 / psy=1 / psy_rd=1.00:0.15 / mixed_ref=1 / me_range=24 / chroma_me=1 / trellis=2 / 8x8dct=1 / cqm=0 / deadzone=21,11 / fast_pskip=0 / chroma_qp_offset=-3 / threads=6 / lookahead_threads=1 / sliced_threads=0 / nr=0 / decimate=1 / interlaced=0 / bluray_compat=0 / constrained_intra=0 / bframes=8 / b_pyramid=2 / b_adapt=2 / b_bias=0 / direct=1 / weightb=1 / open_gop=0 / weightp=2 / keyint=230 / keyint_min=23 / scenecut=40 / intra_refresh=0 / rc_lookahead=40 / rc=crf / mbtree=0 / crf=20.0 / qcomp=0.60 / qpmin=0 / qpmax=69 / qpstep=4 / vbv_maxrate=50000 / vbv_bufsize=62500 / crf_max=0.0 / nal_hrd=none / ip_ratio=1.40 / pb_ratio=1.30 / aq=1:1.00
Язык : Russian
Default : Да
Forced : Нет

Аудио
Идентификатор : 2
Формат : AC-3
Формат/Информация : Audio Coding 3
Расширение режима : CM (complete main)
Параметр Endianness формата : Big
Идентификатор кодека : A_AC3
Продолжительность : 2 ч. 3 м.
Вид битрейта : Постоянный
Битрейт : 640 Кбит/сек
Каналы : 6 каналов
Расположение каналов : Front: L C R, Side: L R, LFE
Частота : 48,0 КГц
Битовая глубина : 16 бит
Метод сжатия : С потерями
Размер потока : 566 Мбайт (10%)
Заголовок : Оригинал
Язык : Russian
Default : Да
Forced : Нет

Текст
Идентификатор : 3
Формат : UTF-8
Идентификатор кодека : S_TEXT/UTF8
Идентификатор кодека/Информация : UTF-8 Plain Text
Заголовок : английский
Язык : English
Default : Нет
Forced : Нет

---[Information] [09.11.2013 3:18:32] avs [info]: 1280x720p 1:1 @ 24/1 fps (cfr)
---[Information] [09.11.2013 3:18:32] x264 [info]: using SAR=1/1
---[Information] [09.11.2013 3:18:32] x264 [info]: using cpu capabilities: MMX2 SSE2Fast SSSE3 SSE4.2
---[Information] [09.11.2013 3:18:33] x264 [info]: profile High, level 4.1
---[Information] [09.11.2013 15:17:24] x264 [info]: frame I:929 Avg QP:18.76 size:100820
---[Information] [09.11.2013 15:17:25] x264 [info]: frame P:39606 Avg QP:19.70 size: 46355
---[Information] [09.11.2013 15:17:25] x264 [info]: frame B:137387 Avg QP:22.56 size: 22919
---[Information] [09.11.2013 15:17:25] x264 [info]: consecutive B-frames: 2.0% 3.5% 7.0% 22.8% 16.1% 39.7% 4.4% 1.8% 2.8%
---[Information] [09.11.2013 15:17:25] x264 [info]: mb I I16..4: 13.1% 73.7% 13.1%
---[Information] [09.11.2013 15:17:25] x264 [info]: mb P I16..4: 3.7% 25.5% 2.4% P16..4: 33.9% 18.2% 7.5% 0.0% 0.0% skip: 8.9%
---[Information] [09.11.2013 15:17:25] x264 [info]: mb B I16..4: 0.5% 4.6% 0.3% B16..8: 39.9% 11.5% 2.7% direct:11.2% skip:29.2% L0:46.0% L1:45.6% BI: 8.3%
---[Information] [09.11.2013 15:17:25] x264 [info]: 8x8 transform intra:81.7% inter:70.4%
---[Information] [09.11.2013 15:17:25] x264 [info]: coded y,uvDC,uvAC intra: 86.8% 48.8% 13.6% inter: 37.6% 20.8% 0.5%
---[Information] [09.11.2013 15:17:25] x264 [info]: i16 v,h,dc,p: 34% 13% 20% 33%
---[Information] [09.11.2013 15:17:25] x264 [info]: i8 v,h,dc,ddl,ddr,vr,hd,vl,hu: 7% 8% 10% 10% 14% 12% 14% 11% 14%
---[Information] [09.11.2013 15:17:25] x264 [info]: i4 v,h,dc,ddl,ddr,vr,hd,vl,hu: 7% 10% 4% 8% 15% 13% 17% 10% 16%
---[Information] [09.11.2013 15:17:25] x264 [info]: i8c dc,h,v,p: 51% 23% 17% 10%
---[Information] [09.11.2013 15:17:25] x264 [info]: Weighted P-Frames: Y:9.5% UV:4.3%
---[Information] [09.11.2013 15:17:25] x264 [info]: ref P L0: 40.9% 11.6% 17.4% 7.8% 6.4% 5.1% 4.5% 3.0% 2.9% 0.5% 0.0%
---[Information] [09.11.2013 15:17:25] x264 [info]: ref B L0: 68.4% 12.8% 7.2% 3.9% 3.1% 2.5% 1.5% 0.5%
---[Information] [09.11.2013 15:17:25] x264 [info]: ref B L1: 91.3% 8.7%
---[Information] [09.11.2013 15:17:25] x264 [info]: kb/s:5480.11
---[Information] [09.11.2013 15:17:25] encoded 177922 frames, 4.12 fps, 5480.11 kb/s
--[Information] [09.11.2013 15:17:26] Final statistics
---[Information] [09.11.2013 15:17:26] Constant Quality Mode: Quality 20 computed...
---[Information] [09.11.2013 15:17:26] Video Bitrate Obtained (approximate): 5481 kbit/s
--[Information] [09.11.2013 15:17:26] MediaInfo
---[Information] File: E:RipKraj.2010.x264.BDRipKraj.2010.x264.BDRip.720p.mkv






   Похожие торренты   Торрент   Размер 
В этой теме нет новых непрочитанных сообщений. Край (2010) BDRip 720p

3 | 2

5.88 ГБ

В этой теме нет новых непрочитанных сообщений. Край (2010) BDRip 720p от NOLIMITS-TEAM

13 | 2

2.16 ГБ

В этой теме нет новых непрочитанных сообщений. Край (2010) BDRip 1080p

3 | 4

11.61 ГБ

В этой теме нет новых непрочитанных сообщений. Край (2010) BDRip от SMALL-RiP

10 | 6

1.46 ГБ

В этой теме нет новых непрочитанных сообщений. Край (2010) BDRip 1080p

47 | 6

4.37 ГБ

В этой теме нет новых непрочитанных сообщений. Край (2010) BDRip от HQCLUB

13 | 5

2.18 ГБ

В этой теме нет новых непрочитанных сообщений. Край (2010) BDRip-AVC от potroks

58 | 3

2.18 ГБ




Вы не можете начинать темы
Вы не можете отвечать на сообщения
Вы не можете редактировать свои сообщения
Вы не можете удалять свои сообщения
Вы не можете добавлять вложения

Перейти:  
Для Мосгорсуда, Роскомнадзора и рекламодателей: mosgorsud-torrent[собачка]yandex.ru
 Вход
ppkBB3cker v.2 © 2008-2014 @ PPK
[ Time : 0.039s | 15 Queries | GZIP : Off ]

cron