img image001 image001 image001 image001 image001 image001 image001 image001 image001 image001 image001 image001 image001 image001 image001

Planets Sun Sun Sun
Статистика раздачи
Автор: PriZraK | Размер: 1.46 ГБ | Добавлен: 15 фев 2014
Раздают: 119    Качают: 10
Скачать торрент
Скачать торрент
Описание торрента

СообщениеДобавлено: 15 фев 2014 


Мужчина с гарантией

#77
Страна: Россия
Жанр: комедия, семейный
Год выпуска: 2012
Продолжительность: 01:24:11
Перевод: нет требуется

Режиссёр: Артем Аксененко

В ролях: Александр Олешко, Нонна Гришаева, Петр Федоров, Дмитрий Нагиев, Юлия Гришина, Дмитрий Шаракоис, Михаил Павлик, Сергей Походаев, Ольга Волкова, Андрей Федорцов

Описание: В одном большом и любимом горожанами торговом центре работает охранником необычный человек. Он помогает всем вокруг: продавцам общепита и модной одежды, уборщикам и барменам в кафетерии. Он знает всё и всех, и все знают и любят его! Он словно домовой в этом огромном здании с миллионом неоновых вывесок и ярких стеклянных витрин. Ведь здесь он не только работает, но и живет полноценной жизнью — бесплатно одевается, питается в ресторанах, спит в мебельном отделе и участвует в ночных гонках на полотерах. «Какой странный персонаж!» — подумаете вы. На самом деле, у нашего героя есть хрустальная и загадочная мечта, на осуществление которой он старательно копит деньги на «зарплатной» банковской карте. Однажды в его жизни появляется стажерка, которую необходимо обучить всему, что умеет он сам. Отношения, начавшиеся как обременительная обязанность, постепенно начинают перерастать дружеские. Ну а дружба между мужчиной и женщиной вещь весьма специфическая, тут и до романтики недалеко! Однако, герой не знает одной важной детали: эта его «коллега» — владелица всего торгового центра.



Качество видео: HDRip [BDRip 1080p]
Формат видео: AVI
Видео кодек: XviD
Аудио кодек: AC3
Видео: 720x304 (2.37:1), 23.976 fps, XviD build 73 ~2027 kbps avg, 0.39 bit/pixel
Аудио: 48 kHz, AC3 Dolby Digital, 3/2 (L,C,R,l,r) + LFE ch, ~448 kbps

Раздача от:


D:Мои рипыМужчина с гарантией.2012.HDRip.dexter_lex.avi
General
Complete name : D:Мои рипыМужчина с гарантией.2012.HDRip.dexter_lex.avi
Format : AVI
Format/Info : Audio Video Interleave
File size : 1.46 GiB
Duration : 1h 24mn
Overall bit rate : 2 485 Kbps
Writing application : VirtualDubMod 1.5.10.3 | www.virtualdub-fr.org || (build 2550/release)
Writing library : VirtualDubMod build 2550/release
Video #0
ID : 0
Format : MPEG-4 Visual
Format profile : Advanced Simple@L5
Format settings, BVOP : 1
Format settings, QPel : No
Format settings, GMC : No warppoints
Format settings, Matrix : Custom
Codec ID : XVID
Codec ID/Hint : XviD
Duration : 1h 24mn
Bit rate : 2 027 Kbps
Width : 720 pixels
Height : 304 pixels
Display aspect ratio : 2.35:1
Frame rate : 23.976 fps
Color space : YUV
Chroma subsampling : 4:2:0
Bit depth : 8 bits
Scan type : Progressive
Compression mode : Lossy
Bits/(Pixel*Frame) : 0.386
Stream size : 1.19 GiB (82%)
Writing library : XviD 73
Audio #1
ID : 1
Format : AC-3
Format/Info : Audio Coding 3
Mode extension : CM (complete main)
Codec ID : 2000
Duration : 1h 24mn
Bit rate mode : Constant
Bit rate : 448 Kbps
Channel(s) : 6 channels
Channel positions : Front: L C R, Side: L R, LFE
Sampling rate : 48.0 KHz
Bit depth : 16 bits
Compression mode : Lossy
Stream size : 270 MiB (18%)
Alignment : Split accross interleaves
Interleave, duration : 42 ms (1.00 video frame)
Interleave, preload duration : 500 ms



   Похожие торренты   Торрент   Размер 
В этой теме нет новых непрочитанных сообщений. Мужчина с гарантией (2012) HDRip от New-Team

77 | 13

744.52 МБ

В этой теме нет новых непрочитанных сообщений. Мужчина с гарантией (2012) HDRip от Torrent-Xzona | КПК | Лицензия

18 | 13

349.43 МБ

В этой теме нет новых непрочитанных сообщений. Мужчина с гарантией (2012) Blu-Ray

6 | 12

22.74 ГБ

В этой теме нет новых непрочитанных сообщений. Мужчина с гарантией (2012) DVD5 | Лицензия

2 | 2

4.34 ГБ

В этой теме нет новых непрочитанных сообщений. Мужчина с гарантией (2012) BDRip-AVC | iPad

23 | 3

1.2 ГБ

В этой теме нет новых непрочитанных сообщений. Мужчина с гарантией (2012) BDRip-AVC | Лицензия

8 | 3

1.45 ГБ

В этой теме нет новых непрочитанных сообщений. Мужчина с гарантией (2012) DVDRip | КПК | Лицензия

8 | 3

364.22 МБ




Вы не можете начинать темы
Вы не можете отвечать на сообщения
Вы не можете редактировать свои сообщения
Вы не можете удалять свои сообщения
Вы не можете добавлять вложения

Перейти:  
Для Мосгорсуда, Роскомнадзора и рекламодателей: mosgorsud-torrent[собачка]yandex.ru
 Вход
ppkBB3cker v.2 © 2008-2014 @ PPK
[ Time : 0.044s | 16 Queries | GZIP : Off ]

cron