img image001 image001 image001 image001 image001 image001 image001 image001 image001 image001 image001 image001 image001 image001 image001

Planets Sun Sun Sun
Статистика раздачи
Автор: PriZraK | Размер: 1.45 ГБ | Добавлен: 15 фев 2014
Раздают: 106    Качают: 13
Скачать торрент
Скачать торрент
Описание торрента

СообщениеДобавлено: 15 фев 2014 


#77
Страна: СССР
Производство: Мосфильм, Ленфильм
Жанр: комедия
Год выпуска: 1979
Продолжительность: 01:28:43

Перевод: не требуется
Оригинальная аудиодорожка: русский
Cубтитры: нет

Режиссер: Георгий Данелия

В ролях:
Олег Басилашвили, Наталья Гундарева, Евгений Леонов, Марина Неелова, Николай Крючков, Ольга Богданова, Борислав Брондуков, Владимир Фирсов, Владимир Грамматиков, Людмила Иванова, Галина Волчек...

Описание:
У талантливого педагога и переводчика Бузыкина нерешительный характер. Он не может оставить жену и уйти к любимой женщине, не может отказать эксплуатирующей его талант сокурснице, терпит посещения доморощенного философа-алкаша, а когда, наконец, решается на смелый шаг — терпит фиаско, так как по природе мягок и податлив, как воск.…





Исходник: DVD9 R5
Тип релиза: DVDRip-AVC
Контейнер: MKV

Видео: 696->742x572 (1,297:1), 25 fps, H264 ~ 1899 kbps avg, 0.191 bit/pixel
Аудио: 48 kHz, Dolby AC3 5.1, 448 kbps

Раздача от:
Общее
Полное имя : Osenniy.marafon.1979.DVDRip-AVC_[Youtracker]_by_AVP Studio.mkv
Формат : Matroska
Версия формата : Version 2
Размер файла : 1,45 Гбайт
Продолжительность : 1 ч. 28 м.
Общий поток : 2347 Кбит/сек
Дата кодирования : UTC 2013-10-23 07:23:06
Программа кодирования : mkvmerge v6.1.0 ('Old Devil') built on Mar 4 2013 09:10:42
Библиотека кодирования : libebml v1.3.0 + libmatroska v1.4.0

Видео
Идентификатор : 1
Формат : AVC
Формат/Информация : Advanced Video Codec
Профиль формата : High@L4.1
Параметр CABAC формата : Да
Параметр ReFrames формата : 6 кадров
Идентификатор кодека : V_MPEG4/ISO/AVC
Продолжительность : 1 ч. 28 м.
Битрейт : 1899 Кбит/сек
Ширина : 696 пикселей
Высота : 572 пикселя
Соотношение сторон : 1,297
Соотношение сторон в оригинале : 1,298
Частота кадров : 25,000 кадров/сек
Цветовое пространство : YUV
Субдискретизация насыщенности : 4:2:0
Битовая глубина : 8 бит
Тип развёртки : Прогрессивная
Бит/(Пиксели*Кадры) : 0.191
Размер потока : 1,15 Гбайт (79%)
Библиотека кодирования : x264 core 138 r2356 a1d3d17
Настройки программы : cabac=1 / ref=6 / deblock=1:-2:-1 / analyse=0x3:0x113 / me=umh / subme=10 / psy=1 / psy_rd=1.00:0.05 / mixed_ref=1 / me_range=32 / chroma_me=1 / trellis=2 / 8x8dct=1 / cqm=0 / deadzone=21,11 / fast_pskip=0 / chroma_qp_offset=-3 / threads=3 / lookahead_threads=1 / sliced_threads=0 / nr=0 / decimate=0 / interlaced=0 / bluray_compat=0 / constrained_intra=0 / bframes=8 / b_pyramid=2 / b_adapt=2 / b_bias=0 / direct=3 / weightb=1 / open_gop=0 / weightp=2 / keyint=250 / keyint_min=25 / scenecut=40 / intra_refresh=0 / rc=2pass / mbtree=0 / bitrate=1899 / ratetol=1.0 / qcomp=0.60 / qpmin=0 / qpmax=69 / qpstep=4 / cplxblur=20.0 / qblur=0.5 / ip_ratio=1.40 / pb_ratio=1.30 / aq=1:1.00
Default : Да
Forced : Нет

Аудио
Идентификатор : 2
Формат : AC-3
Формат/Информация : Audio Coding 3
Расширение режима : CM (complete main)
Идентификатор кодека : A_AC3
Продолжительность : 1 ч. 28 м.
Вид битрейта : Постоянный
Битрейт : 448 Кбит/сек
Каналы : 6 каналов
Расположение каналов : Front: L C R, Side: L R, LFE
Частота : 48,0 КГц
Битовая глубина : 16 бит
Метод сжатия : С потерями
Задержка видео : 12 с.
Размер потока : 284 Мбайт (19%)
Default : Да
Forced : Нет



Кинофестиваль в Сан-Себастьяне (1979) — главный приз и премия ФИПРЕССИ;
Венецианский кинофестиваль (1979) — премия итальянских журналистов за лучшую мужскую роль (Евгений Леонов) и премия ФИПРЕССИ;
Всесоюзный кинофестиваль в Душанбе (1980) — главный приз;
МКФ комедийных фильмов в Шамрусе (1980) — главный приз;
Берлинский кинофестиваль (1980) — приз международного евангелического жюри — специальная рекомендация (программа «Форум»);
МКФ комедийных фильмов в Габрове (1981) — специальный приз;
Государственная премия РСФСР имени братьев Васильевых (1981).
Кроме того, фильм мог бы претендовать на премию «Оскар», однако этому помешал ввод советских войск в Афганистан.

Известно, что автор сценария Александр Володин положил в основу сюжета свою собственную жизненную ситуацию. В сходных ситуациях оказывались многие другие создатели фильма: Георгий Данелия (тогда он развёлся со своей второй женой, Любовью Соколовой), Наталья Гундарева (её второй муж, Виктор Корешков, влюбился в певицу Валентину Игнатьеву), Марина Неёлова (она оказывалась в положении своей героини; однако кто был её Бузыкин, неизвестно, — возможно, шахматист Гарри Каспаров), Галина Волчек (она побывала в положении и жены Бузыкина, и любовницы — в частности, известно что ей изменял её первый муж, Евгений Евстигнеев). Только исполнитель роли самого Бузыкина, Олег Басилашвили, не мог понять сути фильма. Но спустя несколько лет, встретив Данелию, он сказал ему «Да, теперь я знаю, о чём мы сняли кино…»
В таких ситуациях оказывались и другие люди, в том числе некоторые знакомые мужчины Данелии. Неудивительно, что после премьеры они заподозрили, что он списал сюжет с них. Кроме того, в кинематографической среде обратили внимание на то, что имя и отчество Бузыкина совпадают с именем и отчеством композитора фильма Андрея Петрова, а инициалы жены Бузыкина — с инициалами жены Петрова, Натальи Ефимовны, которую, как и первую, часто звали «эн-е». Однако Петров утверждает, что любовницы по имени Аллочка у него не было.
Фильм вызвал критику многих женщин. Одних не устраивало то, что Бузыкин не вернулся окончательно к жене, других — что не ушёл к любовнице. Это объяснялось тем, что эти женщины сами оказывались на месте соответственно жены или любовницы. В частности, на просмотре фильма на фестивале в Сан-Себастьяне присутствовала переводчица, которая 3 года была влюблена в женатого мужчину, а он никак не решался уйти от жены. Под конец фильма, когда стало ясно, что Бузыкин не уйдёт от жены, она крикнула Данелии «Вы подлец, Георгий Николаевич» — и выбежала из зала.



   Похожие торренты   Торрент   Размер 
В этой теме нет новых непрочитанных сообщений. Осенний марафон (1979) DVDRip от New-Team

29 | 10

744.75 МБ

В этой теме нет новых непрочитанных сообщений. Осенний марафон (1979) DVDRip от New-Team

138 | 9

1.46 ГБ

В этой теме нет новых непрочитанных сообщений. Осенний марафон (1979) DVDRip-AVC

24 | 7

710.9 МБ

В этой теме нет новых непрочитанных сообщений. Осенний марафон (1979) DVDRip

357 | 79

1.46 ГБ

В этой теме нет новых непрочитанных сообщений. Осенний марафон (1979) DVDRip от Doctor No.

58 | 11

2.09 ГБ

В этой теме нет новых непрочитанных сообщений. Осенний марафон (1979) DVDRip-AVC от ExKinoRay

131 | 7

1.67 ГБ

В этой теме нет новых непрочитанных сообщений. Осенний марафон (1979) DVD5 | Реставрация

49 | 8

4.38 ГБ




Вы не можете начинать темы
Вы не можете отвечать на сообщения
Вы не можете редактировать свои сообщения
Вы не можете удалять свои сообщения
Вы не можете добавлять вложения

Перейти:  
Для Мосгорсуда, Роскомнадзора и рекламодателей: mosgorsud-torrent[собачка]yandex.ru
 Вход
ppkBB3cker v.2 © 2008-2014 @ PPK
[ Time : 0.054s | 14 Queries | GZIP : Off ]

Торрент трекер RUTOR.IN, Не можете зайти на rutor.org? Какой новый адрес рутор? Какое зеркало рутор? Не работает rutor.org и зеркала? Тогда наш торрент специально для вас. Rutor.in неофициальное зеркало rutor. В случае если у Вас заблокирован rutor или вдруг Вы не можете на него зайти, то Вы без труда сможете скачать бесплатно и без рекламы последние новинки кино, игр, сериалов и прочего у нас, на Rutor.in. Не нужно использовать прокси, чтобы зайти на рутор, достаточно воспользоваться нашим ресурсом. Все новые фильмы, игры, сериалы, книги и музыка за 2013 и 2014 годы через торрент бесплатно. Скачивайте фильмы в хорошем качестве, игры для пк, xbox, playstation без регистрации. У нас вы найдете новые Зарубежные сериалы и Русские сериалы 2013, 2014, 2015 годов. Оставайтесь с нами, качайте любимые фильмы, игры, сериалы, книги и музыку.