img image001 image001 image001 image001 image001 image001 image001 image001 image001 image001 image001 image001 image001 image001 image001

Planets Sun Sun Sun
Статистика раздачи
Автор: PriZraK | Размер: 1.46 ГБ | Добавлен: 15 фев 2014
Раздают: 77    Качают: 18
Скачать торрент
Скачать торрент
Описание торрента

СообщениеДобавлено: 15 фев 2014 


#77
Страна: СССР
Производство: Мосфильм

Жанр: мелодрама, комедия
Год выпуска: 1981
Продолжительность: 01:11:57

Перевод: не требуется
Оригинальная аудиодорожка: русский
Cубтитры: нет

Режиссер: Иван Киасашвили

В ролях:
Марина Неелова, Наталья Андрейченко, Мария Виноградова, Татьяна Божок, Леонид Куравлев, Александр Фатюшин, Николай Караченцов, Валерий Носик, Александр Соловьев, Гия Перадзе, Николай Скоробогатов, Петр Олев, Людмила Иванова, Геннадий Ялович...

Описание:
На кавказский курорт из провинциального городка приезжает впервые в жизни добрая, жизнерадостная и чистосердечная продавщица Аня, не скрывая своего желания найти себе жениха. Много грустных и забавных приключений ей предстоит пережить до того, как одинокий и неприкаянный Саня сделает ей предложение.
Любимый муж, дети, тихое семейное счастье — об этом мечтает героиня фильма. Она просто создана для такой жизни — однако ей почему-то не везет. Нет, она не ждет сказочного принца, может многое простить. Только вот без любви и понимания обойтись не в силах...





Исходник: DVD5 R5
Тип релиза: DVDRip-AVC
Контейнер: MKV

Видео: 720->778x556 (1,381:1), 25 fps, H264 ~ 2447 kbps avg, 0.245 bit/pixel
Аудио: 48 kHz, Dolby AC3 5.1, 448 kbps

Раздача от:
Общее
Полное имя : Damy.priglashayut.kavalerov.1981.DVDRip-AVC_[New-team]_by_AVP_Studio.mkv
Формат : Matroska
Версия формата : Version 2
Размер файла : 1,46 Гбайт
Продолжительность : 1 ч. 11 м.
Общий поток : 2897 Кбит/сек
Дата кодирования : UTC 2013-11-11 02:59:42
Программа кодирования : mkvmerge v6.1.0 ('Old Devil') built on Mar 4 2013 09:10:42
Библиотека кодирования : libebml v1.3.0 + libmatroska v1.4.0

Видео
Идентификатор : 1
Формат : AVC
Формат/Информация : Advanced Video Codec
Профиль формата : High@L4.1
Параметр CABAC формата : Да
Параметр ReFrames формата : 6 кадров
Идентификатор кодека : V_MPEG4/ISO/AVC
Продолжительность : 1 ч. 11 м.
Битрейт : 2447 Кбит/сек
Ширина : 720 пикселей
Высота : 556 пикселей
Соотношение сторон : 1,381
Частота кадров : 25,000 кадров/сек
Цветовое пространство : YUV
Субдискретизация насыщенности : 4:2:0
Битовая глубина : 8 бит
Тип развёртки : Прогрессивная
Бит/(Пиксели*Кадры) : 0.245
Размер потока : 1,20 Гбайт (83%)
Библиотека кодирования : x264 core 138 r2356 a1d3d17
Настройки программы : cabac=1 / ref=6 / deblock=1:-2:-1 / analyse=0x3:0x113 / me=umh / subme=10 / psy=1 / psy_rd=1.00:0.05 / mixed_ref=1 / me_range=32 / chroma_me=1 / trellis=2 / 8x8dct=1 / cqm=0 / deadzone=21,11 / fast_pskip=0 / chroma_qp_offset=-3 / threads=3 / lookahead_threads=1 / sliced_threads=0 / nr=0 / decimate=0 / interlaced=0 / bluray_compat=0 / constrained_intra=0 / bframes=8 / b_pyramid=2 / b_adapt=2 / b_bias=0 / direct=3 / weightb=1 / open_gop=0 / weightp=2 / keyint=250 / keyint_min=25 / scenecut=40 / intra_refresh=0 / rc=2pass / mbtree=0 / bitrate=2447 / ratetol=1.0 / qcomp=0.60 / qpmin=0 / qpmax=69 / qpstep=4 / cplxblur=20.0 / qblur=0.5 / ip_ratio=1.40 / pb_ratio=1.30 / aq=1:1.00
Default : Да
Forced : Нет

Аудио
Идентификатор : 2
Формат : AC-3
Формат/Информация : Audio Coding 3
Расширение режима : CM (complete main)
Идентификатор кодека : A_AC3
Продолжительность : 1 ч. 11 м.
Вид битрейта : Постоянный
Битрейт : 448 Кбит/сек
Каналы : 6 каналов
Расположение каналов : Front: L C R, Side: L R, LFE
Частота : 48,0 КГц
Битовая глубина : 16 бит
Метод сжатия : С потерями
Размер потока : 231 Мбайт (15%)
Default : Да
Forced : Нет





   Похожие торренты   Торрент   Размер 
В этой теме нет новых непрочитанных сообщений. Дамы приглашают кавалеров (1981) DVDRip от New-Team

15 | 12

744.75 МБ

В этой теме нет новых непрочитанных сообщений. Дамы приглашают кавалеров (1981) DVDRip от New-Team

449 | 35

1.46 ГБ

В этой теме нет новых непрочитанных сообщений. Дамы приглашают кавалеров (1981) DVDRip-AVC от ExKinoRay

123 | 10

1.57 ГБ

В этой теме нет новых непрочитанных сообщений. Дамы приглашают кавалеров (1980) DVDRip | Реставрация

2 | 5

1.3 ГБ

В этой теме нет новых непрочитанных сообщений. Дамы приглашают кавалеров (1980) DVD5 | Реставрация

13 | 2

4.05 ГБ

В этой теме нет новых непрочитанных сообщений. Подлинная история дамы с камелиями / La storia vera della signora dalle camelie (1981) DVDRip | P

44 | 9

1.46 ГБ

В этой теме нет новых непрочитанных сообщений. Подлинная история дамы с камелиями / La storia vera della signora dalle camelie (1981) DVDRip-AVC | P

88 | 7

1.46 ГБ




Вы не можете начинать темы
Вы не можете отвечать на сообщения
Вы не можете редактировать свои сообщения
Вы не можете удалять свои сообщения
Вы не можете добавлять вложения

Перейти:  
Для Мосгорсуда, Роскомнадзора и рекламодателей: mosgorsud-torrent[собачка]yandex.ru
 Вход
ppkBB3cker v.2 © 2008-2014 @ PPK
[ Time : 0.519s | 15 Queries | GZIP : Off ]

Торрент трекер RUTOR.IN, Не можете зайти на rutor.org? Какой новый адрес рутор? Какое зеркало рутор? Не работает rutor.org и зеркала? Тогда наш торрент специально для вас. Rutor.in неофициальное зеркало rutor. В случае если у Вас заблокирован rutor или вдруг Вы не можете на него зайти, то Вы без труда сможете скачать бесплатно и без рекламы последние новинки кино, игр, сериалов и прочего у нас, на Rutor.in. Не нужно использовать прокси, чтобы зайти на рутор, достаточно воспользоваться нашим ресурсом. Все новые фильмы, игры, сериалы, книги и музыка за 2013 и 2014 годы через торрент бесплатно. Скачивайте фильмы в хорошем качестве, игры для пк, xbox, playstation без регистрации. У нас вы найдете новые Зарубежные сериалы и Русские сериалы 2013, 2014, 2015 годов. Оставайтесь с нами, качайте любимые фильмы, игры, сериалы, книги и музыку.