img image001 image001 image001 image001 image001 image001 image001 image001 image001 image001 image001 image001 image001 image001 image001

Planets Sun Sun Sun
Статистика раздачи
Автор: PriZraK | Размер: 1.46 ГБ | Добавлен: 15 фев 2014
Раздают: 2112    Качают: 188
Скачать торрент
Скачать торрент
Описание торрента

СообщениеДобавлено: 15 фев 2014 


Привычка расставаться



Страна: Россия
Жанр: комедия, мелодрама
Год выпуска: 2013
Продолжительность: 01:19:26


Перевод: Не требуется
Cубтитры: нет
Режиссер: Екатерина Телегина
В ролях: Алёна Константинова, Данила Козловский, Елизавета Боярская, Полина Филоненко, Александра Тюфтей, Александр Петров, Алексей Филимонов, Петр Рыков, Карло Лаванья, Пётр Фёдоров, Артур Смольянинов, Родион Галюченко, Вера Строкова, Никита Дюбанов, Александр Вдовин, Мария Ивакова
Описание: История о девушке, которая не может устроить свою личную жизнь. В поисках ответа, почему все ее отношения не сложились, она решает встретиться со всеми своими бывшими и спросить у них, что они думают по этому поводу. Найдет ли она ответ на свой вопрос? Нет. Найдет ли она свою любовь? Конечно, да!


Автор рипа: _Flash


Раздача от:





Качество видео: DVDRip
Формат видео: AVI
Видео: 720x400, 25.000 fps, XviD build 73 ~2168 kbps avg, 0.301 bit/pixel
Аудио: 48 kHz, AC3 Dolby Digital, 6 ch, 448 kbps avg


Общее
Полное имя : D:Privychka.rasstavatsya.2013.DVDRip.By_Flash.avi
Формат : AVI
Формат/Информация : Audio Video Interleave
Размер файла : 1,46 Гбайт
Продолжительность : 1 ч. 19 м.
Общий поток : 2625 Кбит/сек
Программа кодирования : VirtualDubMod 1.5.10.3 | www.virtualdub-fr.org || (build 2550/release)
Библиотека кодирования : VirtualDubMod build 2550/release
Видео
Идентификатор : 0
Формат : MPEG-4 Visual
Профиль формата : Advanced Simple@L5
Параметр BVOP формата : 1
Параметр QPel формата : Нет
Параметр GMC формата : Без точки перехода
Параметр матрицы формата : Выборочная
Идентификатор кодека : XVID
Идентификатор кодека/Подсказка : XviD
Продолжительность : 1 ч. 19 м.
Битрейт : 2168 Кбит/сек
Ширина : 720 пикселей
Высота : 400 пикселей
Соотношение сторон : 16:9
Частота кадров : 25,000 кадров/сек
Цветовое пространство : YUV
Субдискретизация насыщенности : 4:2:0
Битовая глубина : 8 бит
Тип развёртки : Прогрессивная
Метод сжатия : С потерями
Бит/(Пиксели*Кадры) : 0.301
Размер потока : 1,20 Гбайт (83%)
Библиотека кодирования : XviD 73
Аудио
Идентификатор : 1
Формат : AC-3
Формат/Информация : Audio Coding 3
Расширение режима : CM (complete main)
Параметр Endianness формата : Big
Идентификатор кодека : 2000
Продолжительность : 1 ч. 19 м.
Вид битрейта : Постоянный
Битрейт : 448 Кбит/сек
Каналы : 6 каналов
Расположение каналов : Front: L C R, Side: L R, LFE
Частота : 48,0 КГц
Битовая глубина : 16 бит
Метод сжатия : С потерями
Размер потока : 255 Мбайт (17%)
Выравнивание : Разделение по промежуткам
Продолжительность промежутка : 40 мс. (1,00 видеокадр)
Время предзагрузки промежутка : 500 мс.









   Похожие торренты   Торрент   Размер 
В этой теме нет новых непрочитанных сообщений. Привычка расставаться (2013) DVDRip от New-Team | Лицензия

19 | 9

745.16 МБ

В этой теме нет новых непрочитанных сообщений. Привычка расставаться (2013) DVD5 R5 от New-Team | лицензия

65 | 5

3.77 ГБ

В этой теме нет новых непрочитанных сообщений. Привычка расставаться (2013) DVDRip от Scarabey | Лицензия

120 | 37

743.44 МБ

В этой теме нет новых непрочитанных сообщений. Привычка расставаться (2013) DVDRip от Scarabey | Лицензия

529 | 26

1.45 ГБ

В этой теме нет новых непрочитанных сообщений. Привычка расставаться (2013) DVDRip

488 | 24

1.37 ГБ

В этой теме нет новых непрочитанных сообщений. Привычка расставаться (2013) WEB-DL 720p

179 | 10

2.64 ГБ

В этой теме нет новых непрочитанных сообщений. Привычка расставаться (2013) WEB-DLRip от ivandubskoj

266 | 15

1.46 ГБ




Вы не можете начинать темы
Вы не можете отвечать на сообщения
Вы не можете редактировать свои сообщения
Вы не можете удалять свои сообщения
Вы не можете добавлять вложения

Перейти:  
Для Мосгорсуда, Роскомнадзора и рекламодателей: mosgorsud-torrent[собачка]yandex.ru
 Вход
ppkBB3cker v.2 © 2008-2014 @ PPK
[ Time : 0.052s | 15 Queries | GZIP : Off ]

Торрент трекер RUTOR.IN, Не можете зайти на rutor.org? Какой новый адрес рутор? Какое зеркало рутор? Не работает rutor.org и зеркала? Тогда наш торрент специально для вас. Rutor.in неофициальное зеркало rutor. В случае если у Вас заблокирован rutor или вдруг Вы не можете на него зайти, то Вы без труда сможете скачать бесплатно и без рекламы последние новинки кино, игр, сериалов и прочего у нас, на Rutor.in. Не нужно использовать прокси, чтобы зайти на рутор, достаточно воспользоваться нашим ресурсом. Все новые фильмы, игры, сериалы, книги и музыка за 2013 и 2014 годы через торрент бесплатно. Скачивайте фильмы в хорошем качестве, игры для пк, xbox, playstation без регистрации. У нас вы найдете новые Зарубежные сериалы и Русские сериалы 2013, 2014, 2015 годов. Оставайтесь с нами, качайте любимые фильмы, игры, сериалы, книги и музыку.