img image001 image001 image001 image001 image001 image001 image001 image001 image001 image001 image001 image001 image001 image001 image001

Planets Sun Sun Sun
Статистика раздачи
Автор: PriZraK | Размер: 1.45 ГБ | Добавлен: 15 фев 2014
Раздают: 19    Качают: 4
Скачать торрент
Скачать торрент
Описание торрента

СообщениеДобавлено: 15 фев 2014 


#77
Страна: СССР
Производство: Беларусьфильм
Жанр: детский, семейный
Год выпуска: 1976
Продолжительность: 01:58:54 (00:59:10 + 00:59:44)

Перевод: не требуется
Оригинальная аудиодорожка: русский
Cубтитры: нет

Режиссер: Игорь Добролюбов, Юрий Оксанченко, Владислав Попов, Дмитрий Михлеев, Виталий Каневский

В ролях:
Володя Станкевич, Алеша Сазонов, Валентина Теличкина, Георгий Белов, Александр Леньков, Аркадий Трусов, Лия Ахеджакова, Александра Климова, Федор Никитин, Борис Гитин, Регина Прохорова, Анатолий Кузнецов, Александр Гай, Анатолий Столбов...

Описание:
Секрет первый. включает рассказы: Синий кинжал, Главные реки, «Тиха украинская ночь....», Что люблю я, Что любит Мишка. Главная линия сюжета: Денис Кораблёв должен рассчитаться с Лёвкой Буриным, за то, что он ударил его пеналом по голове. Но Лёвкин рассказ о вещах, которые тот любит, и подаренная Дениске гильза, смягчили злость и они расстались добрыми друзьями.
Секрет второй. включает рассказы: Здоровая мысль, Куриный бульон, Старый мореход. Главная линия сюжета: Мамина знакомая Марья Петровна обещала Денису взять его на дачу, но не сдержала своего слова. Пытаясь примириться с обиженным мальчиком, она не нашла ничего лучше, как повторить обман, обещая на этот раз настоящую будённовскую саблю.
Секрет третий. включает рассказы: Заколдованная буква, Фантомас, На Садовой большое движение. Главная линия сюжета: Ваня Дыхов построил самый настоящий двухместный велосипед. Ему помогали все ребята, но больше всех Денис. Вдвоём с Ваней они и поехали опробовать машину. Когда они отдыхали в парке, к ним подошёл незнакомый мальчишка и попросил дать велосипед для поездки в аптеку за лекарством тяжело больной бабушке. Ребята ждали его до самого вечера, пока поняли, что ждут напрасно. Парень украл у них велосипед.
Секрет четвертый. включает рассказы: Поют колеса - тра-та-та, Рабочие дробят камень, Человек с голубым лицом. Главная линия сюжета: Денис с папой поехали на выходные в соседнюю деревню, куда их давно звал папин друг, дядя Саша. У дяди Саши было важное дело и он попросил Виктора сесть за руль. На просёлочной дороге под колёса их машины выскочила девочка и папа Дениса не раздумывая резко вывернул руль. Машина перевернулась, дядя Саша и Денис отделались ушибами. Папа сломал руку, но был очень рад тому, что девочка осталась невредимой.





Исходник: DVB
Тип релиза: SATRip
Контейнер: AVI

Видео: 704x528 (4:3), 25 fps, XviD ~ 1546 kbps avg, 0.166 bit/pixel
Аудио: 48 kHz, Dolby AC3 2.0, 192 kbps

Раздача от:
Общее
Полное имя : Po.sekretu.vsemu.svetu.1976.SATRip_[Youtracker]_by_AVP Studio1.avi
Формат : AVI
Формат/Информация : Audio Video Interleave
Размер файла : 740 Мбайт
Продолжительность : 59 м.
Общий поток : 1748 Кбит/сек
Программа кодирования : VirtualDubModRus 1.5.10.2 (build 2542/release)
Библиотека кодирования : VirtualDubMod build 2542/release

Видео
Идентификатор : 0
Формат : MPEG-4 Visual
Профиль формата : Advanced Simple@L5
Параметр BVOP формата : 1
Параметр QPel формата : Нет
Параметр GMC формата : Без точки перехода
Параметр матрицы формата : Выборочная
Идентификатор кодека : XVID
Идентификатор кодека/Подсказка : XviD
Продолжительность : 59 м.
Битрейт : 1546 Кбит/сек
Ширина : 704 пикселя
Высота : 528 пикселей
Соотношение сторон : 4:3
Частота кадров : 25,000 кадров/сек
Цветовое пространство : YUV
Субдискретизация насыщенности : 4:2:0
Битовая глубина : 8 бит
Тип развёртки : Прогрессивная
Метод сжатия : С потерями
Бит/(Пиксели*Кадры) : 0.166
Размер потока : 654 Мбайт (88%)
Библиотека кодирования : XviD 73

Аудио
Идентификатор : 1
Формат : AC-3
Формат/Информация : Audio Coding 3
Расширение режима : CM (complete main)
Идентификатор кодека : 2000
Продолжительность : 59 м.
Вид битрейта : Постоянный
Битрейт : 192 Кбит/сек
Каналы : 2 канала
Расположение каналов : Front: L R
Частота : 48,0 КГц
Битовая глубина : 16 бит
Метод сжатия : С потерями
Размер потока : 81,3 Мбайт (11%)
Выравнивание : Разделение по промежуткам
Продолжительность промежутка : 40 мс. (1,00 видеокадр)
Время предзагрузки промежутка : 500 мс



По секрету всему свету
Когда мои друзья со мной
На дальней станции сойду
Слова Михаила Танича, музыка Владимира Шаинского.



   Похожие торренты   Торрент   Размер 
В этой теме нет новых непрочитанных сообщений. По секрету всему свету (1976) SATRip-AVC от New-Team

15 | 8

1.45 ГБ

В этой теме нет новых непрочитанных сообщений. По секрету всему свету (1976) SATRip

45 | 5

1.45 ГБ

В этой теме нет новых непрочитанных сообщений. По секрету всему свету (1976) DVDRip

57 | 15

1.37 ГБ

В этой теме нет новых непрочитанных сообщений. По секрету всему свету (1976) DVDRip | КПК

157 | 6

943.32 МБ

В этой теме нет новых непрочитанных сообщений. По секрету всему свету + Удивительные приключения Дениса Кораблёва (1976-1979) DVD5

13 | 19

8.18 ГБ

В этой теме нет новых непрочитанных сообщений. По секрету всему свету (2015) WEB-DLRip от Interhit

639 | 48

1.37 ГБ

В этой теме нет новых непрочитанных сообщений. По секрету всему свету (2015) HDTVRip от Шкипер

1091 | 48

745.58 МБ




Вы не можете начинать темы
Вы не можете отвечать на сообщения
Вы не можете редактировать свои сообщения
Вы не можете удалять свои сообщения
Вы не можете добавлять вложения

Перейти:  
Для Мосгорсуда, Роскомнадзора и рекламодателей: mosgorsud-torrent[собачка]yandex.ru
 Вход
ppkBB3cker v.2 © 2008-2014 @ PPK
[ Time : 0.021s | 14 Queries | GZIP : On ]

Торрент трекер RUTOR.IN, Не можете зайти на rutor.org? Какой новый адрес рутор? Какое зеркало рутор? Не работает rutor.org и зеркала? Тогда наш торрент специально для вас. Rutor.in неофициальное зеркало rutor. В случае если у Вас заблокирован rutor или вдруг Вы не можете на него зайти, то Вы без труда сможете скачать бесплатно и без рекламы последние новинки кино, игр, сериалов и прочего у нас, на Rutor.in. Не нужно использовать прокси, чтобы зайти на рутор, достаточно воспользоваться нашим ресурсом. Все новые фильмы, игры, сериалы, книги и музыка за 2013 и 2014 годы через торрент бесплатно. Скачивайте фильмы в хорошем качестве, игры для пк, xbox, playstation без регистрации. У нас вы найдете новые Зарубежные сериалы и Русские сериалы 2013, 2014, 2015 годов. Оставайтесь с нами, качайте любимые фильмы, игры, сериалы, книги и музыку.