img image001 image001 image001 image001 image001 image001 image001 image001 image001 image001 image001 image001 image001 image001 image001

Planets Sun Sun Sun
Статистика раздачи
Автор: PriZraK | Размер: 1.45 ГБ | Добавлен: 15 фев 2014
Раздают: 15    Качают: 8
Скачать торрент
Скачать торрент
Описание торрента

СообщениеДобавлено: 15 фев 2014 


#77
Страна: СССР
Производство: Беларусьфильм
Жанр: детский, семейный
Год выпуска: 1976
Продолжительность: 01:58:54 (00:59:10 + 00:59:44)

Перевод: не требуется
Оригинальная аудиодорожка: русский
Cубтитры: нет

Режиссер: Игорь Добролюбов, Юрий Оксанченко, Владислав Попов, Дмитрий Михлеев, Виталий Каневский

В ролях:
Володя Станкевич, Алеша Сазонов, Валентина Теличкина, Георгий Белов, Александр Леньков, Аркадий Трусов, Лия Ахеджакова, Александра Климова, Федор Никитин, Борис Гитин, Регина Прохорова, Анатолий Кузнецов, Александр Гай, Анатолий Столбов...

Описание:
Секрет первый. включает рассказы: Синий кинжал, Главные реки, «Тиха украинская ночь....», Что люблю я, Что любит Мишка. Главная линия сюжета: Денис Кораблёв должен рассчитаться с Лёвкой Буриным, за то, что он ударил его пеналом по голове. Но Лёвкин рассказ о вещах, которые тот любит, и подаренная Дениске гильза, смягчили злость и они расстались добрыми друзьями.
Секрет второй. включает рассказы: Здоровая мысль, Куриный бульон, Старый мореход. Главная линия сюжета: Мамина знакомая Марья Петровна обещала Денису взять его на дачу, но не сдержала своего слова. Пытаясь примириться с обиженным мальчиком, она не нашла ничего лучше, как повторить обман, обещая на этот раз настоящую будённовскую саблю.
Секрет третий. включает рассказы: Заколдованная буква, Фантомас, На Садовой большое движение. Главная линия сюжета: Ваня Дыхов построил самый настоящий двухместный велосипед. Ему помогали все ребята, но больше всех Денис. Вдвоём с Ваней они и поехали опробовать машину. Когда они отдыхали в парке, к ним подошёл незнакомый мальчишка и попросил дать велосипед для поездки в аптеку за лекарством тяжело больной бабушке. Ребята ждали его до самого вечера, пока поняли, что ждут напрасно. Парень украл у них велосипед.
Секрет четвертый. включает рассказы: Поют колеса - тра-та-та, Рабочие дробят камень, Человек с голубым лицом. Главная линия сюжета: Денис с папой поехали на выходные в соседнюю деревню, куда их давно звал папин друг, дядя Саша. У дяди Саши было важное дело и он попросил Виктора сесть за руль. На просёлочной дороге под колёса их машины выскочила девочка и папа Дениса не раздумывая резко вывернул руль. Машина перевернулась, дядя Саша и Денис отделались ушибами. Папа сломал руку, но был очень рад тому, что девочка осталась невредимой.





Исходник: DVB
Тип релиза: DVDRip-AVC
Контейнер: MKV

Видео: 712->758x568 (4:3), 25 fps, H264 ~ 1555 kbps avg, 0.154 bit/pixel
Аудио: 48 kHz, Dolby AC3 2.0, 192 kbps

Раздача от:
Общее
Полное имя : Po.sekretu.vsemu.svetu.1976.SATRip-AVC_[Youtracker]_by_AVP Studio.mkv
Формат : Matroska
Версия формата : Version 2
Размер файла : 740 Мбайт
Продолжительность : 59 м.
Общий поток : 1748 Кбит/сек
Дата кодирования : UTC 2013-10-22 17:12:01
Программа кодирования : mkvmerge v6.1.0 ('Old Devil') built on Mar 4 2013 09:10:42
Библиотека кодирования : libebml v1.3.0 + libmatroska v1.4.0

Видео
Идентификатор : 1
Формат : AVC
Формат/Информация : Advanced Video Codec
Профиль формата : High@L4.1
Параметр CABAC формата : Да
Параметр ReFrames формата : 6 кадров
Идентификатор кодека : V_MPEG4/ISO/AVC
Продолжительность : 59 м.
Битрейт : 1555 Кбит/сек
Ширина : 712 пикселей
Высота : 568 пикселей
Соотношение сторон : 4:3
Соотношение сторон в оригинале : 4:3
Частота кадров : 25,000 кадров/сек
Цветовое пространство : YUV
Субдискретизация насыщенности : 4:2:0
Битовая глубина : 8 бит
Тип развёртки : Прогрессивная
Бит/(Пиксели*Кадры) : 0.154
Размер потока : 644 Мбайт (87%)
Библиотека кодирования : x264 core 138 r2356 a1d3d17
Настройки программы : cabac=1 / ref=6 / deblock=1:-2:-1 / analyse=0x3:0x113 / me=umh / subme=10 / psy=1 / psy_rd=1.00:0.05 / mixed_ref=1 / me_range=32 / chroma_me=1 / trellis=2 / 8x8dct=1 / cqm=0 / deadzone=21,11 / fast_pskip=0 / chroma_qp_offset=-3 / threads=3 / lookahead_threads=1 / sliced_threads=0 / nr=0 / decimate=0 / interlaced=0 / bluray_compat=0 / constrained_intra=0 / bframes=8 / b_pyramid=2 / b_adapt=2 / b_bias=0 / direct=3 / weightb=1 / open_gop=0 / weightp=2 / keyint=250 / keyint_min=25 / scenecut=40 / intra_refresh=0 / rc=2pass / mbtree=0 / bitrate=1555 / ratetol=1.0 / qcomp=0.60 / qpmin=0 / qpmax=69 / qpstep=4 / cplxblur=20.0 / qblur=0.5 / ip_ratio=1.40 / pb_ratio=1.30 / aq=1:1.00
Default : Да
Forced : Нет

Аудио
Идентификатор : 2
Формат : AC-3
Формат/Информация : Audio Coding 3
Расширение режима : CM (complete main)
Идентификатор кодека : A_AC3
Продолжительность : 59 м.
Вид битрейта : Постоянный
Битрейт : 192 Кбит/сек
Каналы : 2 канала
Расположение каналов : Front: L R
Частота : 48,0 КГц
Битовая глубина : 16 бит
Метод сжатия : С потерями
Размер потока : 81,3 Мбайт (11%)
Default : Да
Forced : Нет



По секрету всему свету
Когда мои друзья со мной
На дальней станции сойду
Слова Михаила Танича, музыка Владимира Шаинского.



   Похожие торренты   Торрент   Размер 
В этой теме нет новых непрочитанных сообщений. По секрету всему свету (1976) SATRip от New-Team

19 | 4

1.45 ГБ

В этой теме нет новых непрочитанных сообщений. По секрету всему свету (1976) SATRip

45 | 5

1.45 ГБ

В этой теме нет новых непрочитанных сообщений. По секрету всему свету (1976) DVDRip

57 | 15

1.37 ГБ

В этой теме нет новых непрочитанных сообщений. По секрету всему свету (1976) DVDRip | КПК

157 | 6

943.32 МБ

В этой теме нет новых непрочитанных сообщений. По секрету всему свету + Удивительные приключения Дениса Кораблёва (1976-1979) DVD5

13 | 19

8.18 ГБ

В этой теме нет новых непрочитанных сообщений. По секрету всему свету (2015) WEB-DLRip от Interhit

639 | 48

1.37 ГБ

В этой теме нет новых непрочитанных сообщений. По секрету всему свету (2015) HDTVRip от Шкипер

1091 | 48

745.58 МБ




Вы не можете начинать темы
Вы не можете отвечать на сообщения
Вы не можете редактировать свои сообщения
Вы не можете удалять свои сообщения
Вы не можете добавлять вложения

Перейти:  
Для Мосгорсуда, Роскомнадзора и рекламодателей: mosgorsud-torrent[собачка]yandex.ru
 Вход
ppkBB3cker v.2 © 2008-2014 @ PPK
[ Time : 1.494s | 17 Queries | GZIP : On ]

Торрент трекер RUTOR.IN, Не можете зайти на rutor.org? Какой новый адрес рутор? Какое зеркало рутор? Не работает rutor.org и зеркала? Тогда наш торрент специально для вас. Rutor.in неофициальное зеркало rutor. В случае если у Вас заблокирован rutor или вдруг Вы не можете на него зайти, то Вы без труда сможете скачать бесплатно и без рекламы последние новинки кино, игр, сериалов и прочего у нас, на Rutor.in. Не нужно использовать прокси, чтобы зайти на рутор, достаточно воспользоваться нашим ресурсом. Все новые фильмы, игры, сериалы, книги и музыка за 2013 и 2014 годы через торрент бесплатно. Скачивайте фильмы в хорошем качестве, игры для пк, xbox, playstation без регистрации. У нас вы найдете новые Зарубежные сериалы и Русские сериалы 2013, 2014, 2015 годов. Оставайтесь с нами, качайте любимые фильмы, игры, сериалы, книги и музыку.