img image001 image001 image001 image001 image001 image001 image001 image001 image001 image001 image001 image001 image001 image001 image001

Planets Sun Sun Sun
Статистика раздачи
Автор: PriZraK | Размер: 1.46 ГБ | Добавлен: 15 фев 2014
Раздают: 25    Качают: 8
Скачать торрент
Скачать торрент
Описание торрента

СообщениеДобавлено: 15 фев 2014 


#77
Страна: СССР
Производство: Свердловская киностудия

Жанр: драма
Год выпуска: 1980
Продолжительность: 02:08:33 (01:03:13+01:05:20)

Перевод: не требуется
Оригинальная аудиодорожка: русский
Cубтитры: нет

Режиссер: Владимир Семаков

В ролях:
Б.Невзоров, Ю.Каюров, Н.Пеньков, В.Панина, В.Гусев, А.Крыченков, Н.Ихтымбаев, Б.Борисов, А.Пороховщиков, В.Суворов...

Описание:
История создания в предвоенные годы советским конструктором М. И. Кошкиным танка «Т-34». Зима 1940 года. До начала Великой Отечественной войны оставалось 16 месяцев. Страна остро нуждалась в современном и надежном вооружении. На одном из военных заводов начальником конструкторского бюро назначают молодого конструктора Михаила Кошкина. Приняв КБ, он всех увлек своим новым проектом танка Т-34. Были созданы две демонстрационные машины, но из заявки на показ новых танков в Кремле их почему-то вычеркивают. Чтобы доказать совершенство своей модели, Кошкин принимает решение идти своим ходом в Москву...





Исходник: DVB
Тип релиза: SATRip-AVC
Контейнер: MKV

Видео: 704->760x500 (1,52:1), 25 fps, H264 ~ 1427 kbps avg, 0.162 bit/pixel
Аудио: 48 kHz, Dolby AC3 2.0, 192 kbps

Раздача от:
Общее
Полное имя : Glavnyy.konstruktor.1980.SATRip-AVC_[New-team]_by_AVP_Studio1.mkv
Формат : Matroska
Версия формата : Version 2
Размер файла : 733 Мбайт
Продолжительность : 1 ч. 3 м.
Общий поток : 1621 Кбит/сек
Дата кодирования : UTC 2013-11-12 21:23:22
Программа кодирования : mkvmerge v6.1.0 ('Old Devil') built on Mar 4 2013 09:10:42
Библиотека кодирования : libebml v1.3.0 + libmatroska v1.4.0

Видео
Идентификатор : 1
Формат : AVC
Формат/Информация : Advanced Video Codec
Профиль формата : High@L4.1
Параметр CABAC формата : Да
Параметр ReFrames формата : 6 кадров
Идентификатор кодека : V_MPEG4/ISO/AVC
Продолжительность : 1 ч. 3 м.
Битрейт : 1427 Кбит/сек
Ширина : 704 пикселя
Высота : 500 пикселей
Соотношение сторон : 3:2
Частота кадров : 25,000 кадров/сек
Цветовое пространство : YUV
Субдискретизация насыщенности : 4:2:0
Битовая глубина : 8 бит
Тип развёртки : Прогрессивная
Бит/(Пиксели*Кадры) : 0.162
Размер потока : 632 Мбайт (86%)
Библиотека кодирования : x264 core 138 r2356 a1d3d17
Настройки программы : cabac=1 / ref=6 / deblock=1:-2:-1 / analyse=0x3:0x113 / me=umh / subme=10 / psy=1 / psy_rd=1.00:0.05 / mixed_ref=1 / me_range=32 / chroma_me=1 / trellis=2 / 8x8dct=1 / cqm=0 / deadzone=21,11 / fast_pskip=0 / chroma_qp_offset=-3 / threads=3 / lookahead_threads=1 / sliced_threads=0 / nr=0 / decimate=0 / interlaced=0 / bluray_compat=0 / constrained_intra=0 / bframes=8 / b_pyramid=2 / b_adapt=2 / b_bias=0 / direct=3 / weightb=1 / open_gop=0 / weightp=2 / keyint=250 / keyint_min=25 / scenecut=40 / intra_refresh=0 / rc=2pass / mbtree=0 / bitrate=1427 / ratetol=1.0 / qcomp=0.60 / qpmin=0 / qpmax=69 / qpstep=4 / cplxblur=20.0 / qblur=0.5 / ip_ratio=1.40 / pb_ratio=1.30 / aq=1:1.00
Default : Да
Forced : Нет

Аудио
Идентификатор : 2
Формат : MPEG Audio
Версия формата : Version 1
Профиль формата : Layer 2
Идентификатор кодека : A_MPEG/L2
Идентификатор кодека/Подсказка : MP2
Продолжительность : 1 ч. 3 м.
Вид битрейта : Постоянный
Битрейт : 192 Кбит/сек
Каналы : 2 канала
Частота : 48,0 КГц
Метод сжатия : С потерями
Размер потока : 86,8 Мбайт (12%)
Default : Да
Forced : Нет



В фильме показан танк более поздней модификации Т-34-85, серийно выпускавшийся с 1944-го года.
В судьбе танка дважды участвовал Иосиф Сталин. В феврале 1939 года, на очередном заседании Комитета Обороны, приняв проект будущего танка Т-34 (А-32). И в ночь на 17 марта, разрешив участие танка в Государственных испытаниях.
Воодушевленный приемом в Москве, после испытаний, конструктор Михаил Кошкин, в обратный путь отправился на тех же танках, будучи уже тяжело больным.
В фильме действует некий зам. наркома обороны по вооружениям по фамилии Рагозин (его играет Юрий Каюров, которого, кстати, советские зрители того времени привыкли видеть в роли В.И.Ленина) - ярый оппонент Кошкина. Под этой вымышленной фамилией скрывается маршал Советского Союза Григорий Иванович Кулик, занимавший в то время эту должность и действительно невзлюбивший Т-34 (на его совести, кстати, "зарубленные" автоматический станковый гранатомет Таубина /это в те-то времена! как бы он пригодился в оборонительных боях 1941-го!/, безоткатные пушки Л.Курчевского /если бы к ним догадались сделать кумулятивный снаряд, который, если верить нашим сегодняшним справочникам, изобрел русский военный инженер еще в 1868 г. - немецкие танки в 1941-м были бы расстреляны максимум в несколько недель!/, ну и, конечно, то, что, вместо заказанных полковником И.Г.Стариновым 400000 противотанковых и противопехотных мин, было выпущено к началу войны всего 400). Обратим внимание: Рагозина в фильме зовут - ГРИГОРИЙ ИВАНОВИЧ, то есть изменена только фамилия. Как известно, с началом войны Кулик был послан на фронт и показал себя не лучшим образом, в результате чего Сталин разжаловал его в генерал-майоры. Наконец уже после войны Кулик, основательно "приняв на грудь" в гостинице "Москва" с другим таким же полководцем - генералом Гордовым ("опущенным" всего лишь с командующего фронтом /Сталинградским - это он допустил немцев к Волге и только там был сменен Рокоссовским/ до командующего армией) стали изливать друг другу свои обиды на Сталина по принципу "сам он дурак" (это восхитительно - неужели не хватило ума подумать, что гостиница для советской элиты прослушивается "органами"?! как же они генералами стали с таким умственным уровнем?). Ответ последовал незамедлительно: оба были арестованы и расстреляны. И хотя фильм "Главный конструктор" снимался через много лет после XX съезда, видимо, эта "жертва сталинских репрессий" создателям фильма (или цензуре) не понравилась и Кулика, продолжая Сталинскую традицию, оставили "вычеркнутым" из истории...
Аналогично Кулику, в фильме показан и нарком Вячеслав Малышев, под вымышленной фамилией Мальцев, но только, в отличие от маршала, с положительной стороны.



   Похожие торренты   Торрент   Размер 
В этой теме нет новых непрочитанных сообщений. Главный конструктор (1980) SATRip от New-Team

6 | 4

1.45 ГБ

В этой теме нет новых непрочитанных сообщений. Главный конструктор (1980) SATRip от New-Team

1 | 3

1.09 ГБ

В этой теме нет новых непрочитанных сообщений. Главный конструктор (1980) SATRip

3 | 9

1.03 ГБ

В этой теме нет новых непрочитанных сообщений. Главный конструктор (1980) DVD5

8 | 3

3.6 ГБ

В этой теме нет новых непрочитанных сообщений. Главный конструктор (1980) DVDRip от Big111

17 | 4

2.05 ГБ

В этой теме нет новых непрочитанных сообщений. Факт (1980) SATRip-AVC от New-Team

33 | 4

1.09 ГБ

В этой теме нет новых непрочитанных сообщений. Факт (1980) SATRip от New-Team

38 | 4

1.48 ГБ




Вы не можете начинать темы
Вы не можете отвечать на сообщения
Вы не можете редактировать свои сообщения
Вы не можете удалять свои сообщения
Вы не можете добавлять вложения

Перейти:  
Для Мосгорсуда, Роскомнадзора и рекламодателей: mosgorsud-torrent[собачка]yandex.ru
 Вход
ppkBB3cker v.2 © 2008-2014 @ PPK
[ Time : 0.038s | 14 Queries | GZIP : On ]

Торрент трекер RUTOR.IN, Не можете зайти на rutor.org? Какой новый адрес рутор? Какое зеркало рутор? Не работает rutor.org и зеркала? Тогда наш торрент специально для вас. Rutor.in неофициальное зеркало rutor. В случае если у Вас заблокирован rutor или вдруг Вы не можете на него зайти, то Вы без труда сможете скачать бесплатно и без рекламы последние новинки кино, игр, сериалов и прочего у нас, на Rutor.in. Не нужно использовать прокси, чтобы зайти на рутор, достаточно воспользоваться нашим ресурсом. Все новые фильмы, игры, сериалы, книги и музыка за 2013 и 2014 годы через торрент бесплатно. Скачивайте фильмы в хорошем качестве, игры для пк, xbox, playstation без регистрации. У нас вы найдете новые Зарубежные сериалы и Русские сериалы 2013, 2014, 2015 годов. Оставайтесь с нами, качайте любимые фильмы, игры, сериалы, книги и музыку.