img image001 image001 image001 image001 image001 image001 image001 image001 image001 image001 image001 image001 image001 image001 image001

Planets Sun Sun Sun
Статистика раздачи
Автор: PriZraK | Размер: 2.17 ГБ | Добавлен: 15 фев 2014
Раздают: 205    Качают: 24
Скачать торрент
Скачать торрент
Описание торрента

СообщениеДобавлено: 15 фев 2014 




Информация о фильме
Название: Грозовые ворота
Год выхода: 2006
Режиссер: Андрей Малюков
В ролях: Михаил Пореченков, Вячеслав Разбегаев, Анатолий Пашинин, Андрей Краско, Иван Жидков, Евгений Потапенко, Михаил Ефремов, Даниил Страхов, Елизавета Боярская, Марина Могилевская, Юрий Цурило, Виктория Толстоганова, Анастасия Цветаева, Борис Щербаков, Екатерина Климова, Александр Лойе, Максим Зыков, Марина Яковлева, Раиса Рязанова, Алексей Шевченков, Александр Фисенко, Илья Бледный, Степан Лапшин, Анна Дюкова, Дмитрий Медведев, Саид Дашук-Нигматулин, Андрей Зибров, Анатолий Гущин

О фильме:
Люди на войне. В бою. В разведке. В отступлении. В атаке… Дни и ночи, проведенные в полевой обстановке заставляют задуматься и вспомнить — почему мы здесь? И в памяти каждого выплывают картины из прошлой и такой далекой теперь жизни. У каждого героя своя предыстория. Кто-то открывает для себя мир, кто-то сбегает от любви, кто-то доказывает свою самостоятельность, кто-то мстит… Такие разные, они оказываются в бою, плечом к плечу: вчерашние школьники и опытные полевые командиры. Фильм раскрывает внутренний мир каждого из них, желания, мечты, боль, надежды… Рота старшего лейтенанта Александра Доронина, в которой служат молодые солдаты Константин Ветров и Николай Горшков, откомандирована на Северный Кавказ. Командир полка полковник Галкин поручает Доронину оборону перевала "Грозовые ворота". К роте Доронина прикомандировывают группу спецназа ГРУ под командованием майора Егорова, у которого несколько лет назад от рук террористов погибли жена и сын. Вскоре по прибытии на перевал, Егоров знакомит Доронина со своим доверенным лицом Шахом, бывшим чеченским генералом. У Шаха имеется достоверная информация, что к перевалу стягиваются крупные силы боевиков. Они готовятся нанести роте сокрушительный удар...



Страна: Россия
Студия: Первый канал, киностудия "Вертикаль"
Продолжительность: 4 х ~ 00:50:00
Перевод: Не требуется

Файл
Кодек: XviD
Качество: DVDRip
Видео: ~ 1357 Кбит/с, 688x416, 25.000 кадр/с
Звук: AC3, 2 ch, 192 Кбит/с

Полное имя : Grozovie.vorota.(4.serii.iz.4).2006.XviD.DVDRip.0ptimusGrozovie.vorota.1s.avi
Формат : AVI
Формат/Информация : Audio Video Interleave
Размер файла : 556 Мбайт
Продолжительность : 52 м.
Общий поток : 1483 Кбит/сек
Программа кодирования : VirtualDubMod 1.5.10.3 | www.virtualdub-fr.org || (build 2550/release)
Правообладатель : 0ptimus

Видео
Идентификатор : 0
Формат : MPEG-4 Visual
Профиль формата : Advanced Simple@L5
Параметр BVOP формата : 1
Параметр QPel формата : Нет
Параметр GMC формата : Без точки перехода
Параметр матрицы формата : Выборочная
Идентификатор кодека : XVID
Идентификатор кодека/Подсказка : XviD
Продолжительность : 52 м.
Битрейт : 1281 Кбит/сек
Ширина : 688 пикселей
Высота : 416 пикселей
Соотношение сторон : 1,654
Частота кадров : 25,000 кадров/сек
Цветовое пространство : YUV
Субдискретизация насыщенности : 4:2:0
Битовая глубина : 8 бит
Тип развёртки : Прогрессивная
Метод сжатия : С потерями
Бит/(Пиксели*Кадры) : 0.179
Размер потока : 480 Мбайт (86%)
Библиотека кодирования : XviD 64

Аудио
Идентификатор : 1
Формат : AC-3
Формат/Информация : Audio Coding 3
Расширение режима : CM (complete main)
Идентификатор кодека : 2000
Продолжительность : 52 м.
Вид битрейта : Постоянный
Битрейт : 192 Кбит/сек
Каналы : 2 канала
Расположение каналов : Front: L R
Частота : 48,0 КГц
Битовая глубина : 16 бит
Метод сжатия : С потерями
Размер потока : 72,0 Мбайт (13%)
Выравнивание : Разделение по промежуткам
Продолжительность промежутка : 40 мс. (1,00 видеокадр)
Время предзагрузки промежутка : 500 мс.

---------------------------------------------------------------------------

Полное имя : Grozovie.vorota.(4.serii.iz.4).2006.XviD.DVDRip.0ptimusGrozovie.vorota.2s.avi
Формат : AVI
Формат/Информация : Audio Video Interleave
Размер файла : 557 Мбайт
Продолжительность : 48 м.
Общий поток : 1617 Кбит/сек
Программа кодирования : VirtualDubMod 1.5.10.3 | www.virtualdub-fr.org || (build 2550/release)
Правообладатель : 0ptimus

Видео
Идентификатор : 0
Формат : MPEG-4 Visual
Профиль формата : Advanced Simple@L5
Параметр BVOP формата : 1
Параметр QPel формата : Нет
Параметр GMC формата : Без точки перехода
Параметр матрицы формата : Выборочная
Идентификатор кодека : XVID
Идентификатор кодека/Подсказка : XviD
Продолжительность : 48 м.
Битрейт : 1415 Кбит/сек
Ширина : 688 пикселей
Высота : 416 пикселей
Соотношение сторон : 1,654
Частота кадров : 25,000 кадров/сек
Цветовое пространство : YUV
Субдискретизация насыщенности : 4:2:0
Битовая глубина : 8 бит
Тип развёртки : Прогрессивная
Метод сжатия : С потерями
Бит/(Пиксели*Кадры) : 0.198
Размер потока : 487 Мбайт (88%)
Библиотека кодирования : XviD 64

Аудио
Идентификатор : 1
Формат : AC-3
Формат/Информация : Audio Coding 3
Расширение режима : CM (complete main)
Идентификатор кодека : 2000
Продолжительность : 48 м.
Вид битрейта : Постоянный
Битрейт : 192 Кбит/сек
Каналы : 2 канала
Расположение каналов : Front: L R
Частота : 48,0 КГц
Битовая глубина : 16 бит
Метод сжатия : С потерями
Размер потока : 66,1 Мбайт (12%)
Выравнивание : Разделение по промежуткам
Продолжительность промежутка : 40 мс. (1,00 видеокадр)
Время предзагрузки промежутка : 500 мс.

---------------------------------------------------------------------------

Полное имя : Grozovie.vorota.(4.serii.iz.4).2006.XviD.DVDRip.0ptimusGrozovie.vorota.3s.avi
Формат : AVI
Формат/Информация : Audio Video Interleave
Размер файла : 556 Мбайт
Продолжительность : 48 м.
Общий поток : 1598 Кбит/сек
Программа кодирования : VirtualDubMod 1.5.10.3 | www.virtualdub-fr.org || (build 2550/release)
Правообладатель : 0ptimus

Видео
Идентификатор : 0
Формат : MPEG-4 Visual
Профиль формата : Advanced Simple@L5
Параметр BVOP формата : 1
Параметр QPel формата : Нет
Параметр GMC формата : Без точки перехода
Параметр матрицы формата : Выборочная
Идентификатор кодека : XVID
Идентификатор кодека/Подсказка : XviD
Продолжительность : 48 м.
Битрейт : 1396 Кбит/сек
Ширина : 688 пикселей
Высота : 416 пикселей
Соотношение сторон : 1,654
Частота кадров : 25,000 кадров/сек
Цветовое пространство : YUV
Субдискретизация насыщенности : 4:2:0
Битовая глубина : 8 бит
Тип развёртки : Прогрессивная
Метод сжатия : С потерями
Бит/(Пиксели*Кадры) : 0.195
Размер потока : 486 Мбайт (87%)
Библиотека кодирования : XviD 64

Аудио
Идентификатор : 1
Формат : AC-3
Формат/Информация : Audio Coding 3
Расширение режима : CM (complete main)
Идентификатор кодека : 2000
Продолжительность : 48 м.
Вид битрейта : Постоянный
Битрейт : 192 Кбит/сек
Каналы : 2 канала
Расположение каналов : Front: L R
Частота : 48,0 КГц
Битовая глубина : 16 бит
Метод сжатия : С потерями
Размер потока : 66,8 Мбайт (12%)
Выравнивание : Разделение по промежуткам
Продолжительность промежутка : 40 мс. (1,00 видеокадр)
Время предзагрузки промежутка : 500 мс.

---------------------------------------------------------------------------

Полное имя : Grozovie.vorota.(4.serii.iz.4).2006.XviD.DVDRip.0ptimusGrozovie.vorota.4s.avi
Формат : AVI
Формат/Информация : Audio Video Interleave
Размер файла : 556 Мбайт
Продолжительность : 50 м.
Общий поток : 1541 Кбит/сек
Программа кодирования : VirtualDubMod 1.5.10.3 | www.virtualdub-fr.org || (build 2550/release)
Правообладатель : 0ptimus

Видео
Идентификатор : 0
Формат : MPEG-4 Visual
Профиль формата : Advanced Simple@L5
Параметр BVOP формата : 1
Параметр QPel формата : Нет
Параметр GMC формата : Без точки перехода
Параметр матрицы формата : Выборочная
Идентификатор кодека : XVID
Идентификатор кодека/Подсказка : XviD
Продолжительность : 50 м.
Битрейт : 1339 Кбит/сек
Ширина : 688 пикселей
Высота : 416 пикселей
Соотношение сторон : 1,654
Частота кадров : 25,000 кадров/сек
Цветовое пространство : YUV
Субдискретизация насыщенности : 4:2:0
Битовая глубина : 8 бит
Тип развёртки : Прогрессивная
Метод сжатия : С потерями
Бит/(Пиксели*Кадры) : 0.187
Размер потока : 483 Мбайт (87%)
Библиотека кодирования : XviD 64

Аудио
Идентификатор : 1
Формат : AC-3
Формат/Информация : Audio Coding 3
Расширение режима : CM (complete main)
Идентификатор кодека : 2000
Продолжительность : 50 м.
Вид битрейта : Постоянный
Битрейт : 192 Кбит/сек
Каналы : 2 канала
Расположение каналов : Front: L R
Частота : 48,0 КГц
Битовая глубина : 16 бит
Метод сжатия : С потерями
Размер потока : 69,3 Мбайт (12%)
Выравнивание : Разделение по промежуткам
Продолжительность промежутка : 40 мс. (1,00 видеокадр)
Время предзагрузки промежутка : 500 мс.




Релиз от:



   Похожие торренты   Торрент   Размер 
В этой теме нет новых непрочитанных сообщений. Грозовые ворота (2006) DVDRip

89 | 9

1.37 ГБ

В этой теме нет новых непрочитанных сообщений. Грозовые ворота (2006) DVDRip-AVC

223 | 15

3.37 ГБ

В этой теме нет новых непрочитанных сообщений. Грозовые ворота (2006) DVDRip

746 | 108

1.37 ГБ

В этой теме нет новых непрочитанных сообщений. Грозовые ворота (2006) DVDRip

881 | 70

2.74 ГБ

В этой теме нет новых непрочитанных сообщений. Грозовые ворота (2006) DVDRip-AVC от ExKinoRay

838 | 104

3.98 ГБ

В этой теме нет новых непрочитанных сообщений. Грозовые ворота (2006) DVDRip | КПК от Lebanon

191 | 6

657.24 МБ

В этой теме нет новых непрочитанных сообщений. Грозовые ворота (2006) DVD9

121 | 11

7.74 ГБ




Вы не можете начинать темы
Вы не можете отвечать на сообщения
Вы не можете редактировать свои сообщения
Вы не можете удалять свои сообщения
Вы не можете добавлять вложения

Перейти:  
Для Мосгорсуда, Роскомнадзора и рекламодателей: mosgorsud-torrent[собачка]yandex.ru
 Вход
ppkBB3cker v.2 © 2008-2014 @ PPK
[ Time : 0.026s | 17 Queries | GZIP : Off ]

Торрент трекер RUTOR.IN, Не можете зайти на rutor.org? Какой новый адрес рутор? Какое зеркало рутор? Не работает rutor.org и зеркала? Тогда наш торрент специально для вас. Rutor.in неофициальное зеркало rutor. В случае если у Вас заблокирован rutor или вдруг Вы не можете на него зайти, то Вы без труда сможете скачать бесплатно и без рекламы последние новинки кино, игр, сериалов и прочего у нас, на Rutor.in. Не нужно использовать прокси, чтобы зайти на рутор, достаточно воспользоваться нашим ресурсом. Все новые фильмы, игры, сериалы, книги и музыка за 2013 и 2014 годы через торрент бесплатно. Скачивайте фильмы в хорошем качестве, игры для пк, xbox, playstation без регистрации. У нас вы найдете новые Зарубежные сериалы и Русские сериалы 2013, 2014, 2015 годов. Оставайтесь с нами, качайте любимые фильмы, игры, сериалы, книги и музыку.
cron