img image001 image001 image001 image001 image001 image001 image001 image001 image001 image001 image001 image001 image001 image001 image001

Planets Sun Sun Sun
Статистика раздачи
Автор: PriZraK | Размер: 1.46 ГБ | Добавлен: 15 фев 2014
Раздают: 71    Качают: 7
Скачать торрент
Скачать торрент
Описание торрента

СообщениеДобавлено: 15 фев 2014 


#77
Страна: СССР
Производство: Беларусьфильм
Жанр: детский, семейный
Год выпуска: 1979
Продолжительность: 02:07:09 (01:03:18 + 01:03:51)

Перевод: не требуется
Оригинальная аудиодорожка: русский
Cубтитры: нет

Режиссер: Игорь Пушкарев, Игорь Добролюбов, Виталий Дудин

В ролях:
Сережа Писунов, Алеша Варвашеня, Александр Кудытин, Саша Ходыко, Ёла Санько, Владимир Носик, Юрий Чернов, Игорь Пушкарев, Федор Никитин, Анатолий Столбов, Георгий Куликов, Галина Макарова, Дмитрий Миргородский, Любовь Соколова, Аркадий Трусов, Тамара Дегтярёва, Светлана Турова...

Описание:
Фильм снят по мотивам известных рассказов популярного детского писателя Виктора Юзефовича Драгунского о школьнике Денисе Кораблёве, его друзьях и близких.
Использованы следующие рассказы: «Ровно двадцать пять кило», в котором Денис весьма оригинальным образом выигрывает подписку на журнал «Мурзилка»; «Не хуже вас, цирковых!», в котором он случайно становится «цирковым артистом» (правда, ненадолго); «Девочка на шаре», в котором он встречает свою первую любовь; «Гусиное горло» в котором Денис приготавливает вполне оригинальный подарок для своего друга; «На Садовой большое движение», где он и его приятель оказываются обманутыми нахальным мальчишкой; «Белые амадины», в котором Денис посещает выставку певчих птиц; «Мой знакомый медведь»; а также небольшие эпизоды из других рассказов…





Исходник: DVD5 R5
Тип релиза: DVDRip-AVC
Контейнер: MKV

Видео: 704->768x572 (4:3), 25 fps, H264 ~ 1445 kbps avg, 0.144 bit/pixel
Аудио: 48 kHz, Dolby AC3 2.0, 192 kbps
Общее
Полное имя : Udivitelnye.priklyucheniya.Denisa.Korableva.1979.DVDRip-AVC_[Youtracker]_by_AVP Studio.mkv
Формат : Matroska
Версия формата : Version 2
Размер файла : 1,46 Гбайт
Продолжительность : 2 ч. 7 м.
Общий поток : 1639 Кбит/сек
Дата кодирования : UTC 2013-10-21 23:35:48
Программа кодирования : mkvmerge v6.1.0 ('Old Devil') built on Mar 4 2013 09:10:42
Библиотека кодирования : libebml v1.3.0 + libmatroska v1.4.0

Видео
Идентификатор : 1
Формат : AVC
Формат/Информация : Advanced Video Codec
Профиль формата : High@L4.1
Параметр CABAC формата : Да
Параметр ReFrames формата : 6 кадров
Идентификатор кодека : V_MPEG4/ISO/AVC
Продолжительность : 2 ч. 7 м.
Битрейт : 1445 Кбит/сек
Ширина : 704 пикселя
Высота : 572 пикселя
Соотношение сторон : 4:3
Частота кадров : 25,000 кадров/сек
Цветовое пространство : YUV
Субдискретизация насыщенности : 4:2:0
Битовая глубина : 8 бит
Тип развёртки : Прогрессивная
Бит/(Пиксели*Кадры) : 0.144
Размер потока : 1,26 Гбайт (86%)
Библиотека кодирования : x264 core 138 r2356 a1d3d17
Настройки программы : cabac=1 / ref=6 / deblock=1:-2:-1 / analyse=0x3:0x113 / me=umh / subme=10 / psy=1 / psy_rd=1.00:0.05 / mixed_ref=1 / me_range=32 / chroma_me=1 / trellis=2 / 8x8dct=1 / cqm=0 / deadzone=21,11 / fast_pskip=0 / chroma_qp_offset=-3 / threads=3 / lookahead_threads=1 / sliced_threads=0 / nr=0 / decimate=0 / interlaced=0 / bluray_compat=0 / constrained_intra=0 / bframes=8 / b_pyramid=2 / b_adapt=2 / b_bias=0 / direct=3 / weightb=1 / open_gop=0 / weightp=2 / keyint=250 / keyint_min=25 / scenecut=40 / intra_refresh=0 / rc=2pass / mbtree=0 / bitrate=1445 / ratetol=1.0 / qcomp=0.60 / qpmin=0 / qpmax=69 / qpstep=4 / cplxblur=20.0 / qblur=0.5 / ip_ratio=1.40 / pb_ratio=1.30 / aq=1:1.00
Default : Да
Forced : Нет

Аудио
Идентификатор : 2
Формат : AC-3
Формат/Информация : Audio Coding 3
Расширение режима : CM (complete main)
Идентификатор кодека : A_AC3
Продолжительность : 2 ч. 7 м.
Вид битрейта : Постоянный
Битрейт : 192 Кбит/сек
Каналы : 2 канала
Расположение каналов : Front: L R
Частота : 48,0 КГц
Битовая глубина : 16 бит
Метод сжатия : С потерями
Размер потока : 175 Мбайт (12%)
Default : Да
Forced : Нет





   Похожие торренты   Торрент   Размер 
В этой теме нет новых непрочитанных сообщений. Удивительные приключения Дениса Кораблева (1979) DVDRip от New-Team

152 | 9

1.46 ГБ

В этой теме нет новых непрочитанных сообщений. Удивительные приключения Дениса Кораблева (1979) DVDRip

5 | 4

2.19 ГБ

В этой теме нет новых непрочитанных сообщений. По секрету всему свету + Удивительные приключения Дениса Кораблёва (1976-1979) DVD5

13 | 19

8.18 ГБ

В этой теме нет новых непрочитанных сообщений. Жизнь и удивительные приключения Робинзона Крузо (1972) DVDRip-AVC

188 | 4

2.03 ГБ

В этой теме нет новых непрочитанных сообщений. Жизнь и удивительные приключения Робинзона Крузо (1972) DVDRip by FREEISLAND

129 | 20

2.44 ГБ

В этой теме нет новых непрочитанных сообщений. Приключения принца Флоризеля / Клуб самоубийц или Приключения титулованной особы (1979) DVDRip

35 | 5

3.28 ГБ

В этой теме нет новых непрочитанных сообщений. Приключения принца Флоризеля / Клуб самоубийц, или Приключения титулованной особы (1979) DVDRip-AVC

307 | 37

3.4 ГБ




Вы не можете начинать темы
Вы не можете отвечать на сообщения
Вы не можете редактировать свои сообщения
Вы не можете удалять свои сообщения
Вы не можете добавлять вложения

Перейти:  
Для Мосгорсуда, Роскомнадзора и рекламодателей: mosgorsud-torrent[собачка]yandex.ru
 Вход
ppkBB3cker v.2 © 2008-2014 @ PPK
[ Time : 0.027s | 15 Queries | GZIP : Off ]

Торрент трекер RUTOR.IN, Не можете зайти на rutor.org? Какой новый адрес рутор? Какое зеркало рутор? Не работает rutor.org и зеркала? Тогда наш торрент специально для вас. Rutor.in неофициальное зеркало rutor. В случае если у Вас заблокирован rutor или вдруг Вы не можете на него зайти, то Вы без труда сможете скачать бесплатно и без рекламы последние новинки кино, игр, сериалов и прочего у нас, на Rutor.in. Не нужно использовать прокси, чтобы зайти на рутор, достаточно воспользоваться нашим ресурсом. Все новые фильмы, игры, сериалы, книги и музыка за 2013 и 2014 годы через торрент бесплатно. Скачивайте фильмы в хорошем качестве, игры для пк, xbox, playstation без регистрации. У нас вы найдете новые Зарубежные сериалы и Русские сериалы 2013, 2014, 2015 годов. Оставайтесь с нами, качайте любимые фильмы, игры, сериалы, книги и музыку.