img image001 image001 image001 image001 image001 image001 image001 image001 image001 image001 image001 image001 image001 image001 image001

Planets Sun Sun Sun
Статистика раздачи
Автор: PriZraK | Размер: 1.46 ГБ | Добавлен: 15 фев 2014
Раздают: 152    Качают: 9
Скачать торрент
Скачать торрент
Описание торрента

СообщениеДобавлено: 15 фев 2014 


#77
Страна: СССР
Производство: Беларусьфильм
Жанр: детский, семейный
Год выпуска: 1979
Продолжительность: 02:07:09 (01:03:18 + 01:03:51)

Перевод: не требуется
Оригинальная аудиодорожка: русский
Cубтитры: нет

Режиссер: Игорь Пушкарев, Игорь Добролюбов, Виталий Дудин

В ролях:
Сережа Писунов, Алеша Варвашеня, Александр Кудытин, Саша Ходыко, Ёла Санько, Владимир Носик, Юрий Чернов, Игорь Пушкарев, Федор Никитин, Анатолий Столбов, Георгий Куликов, Галина Макарова, Дмитрий Миргородский, Любовь Соколова, Аркадий Трусов, Тамара Дегтярёва, Светлана Турова...

Описание:
Фильм снят по мотивам известных рассказов популярного детского писателя Виктора Юзефовича Драгунского о школьнике Денисе Кораблёве, его друзьях и близких.
Использованы следующие рассказы: «Ровно двадцать пять кило», в котором Денис весьма оригинальным образом выигрывает подписку на журнал «Мурзилка»; «Не хуже вас, цирковых!», в котором он случайно становится «цирковым артистом» (правда, ненадолго); «Девочка на шаре», в котором он встречает свою первую любовь; «Гусиное горло» в котором Денис приготавливает вполне оригинальный подарок для своего друга; «На Садовой большое движение», где он и его приятель оказываются обманутыми нахальным мальчишкой; «Белые амадины», в котором Денис посещает выставку певчих птиц; «Мой знакомый медведь»; а также небольшие эпизоды из других рассказов…





Исходник: DVD5 R5
Тип релиза: DVDRip
Контейнер: AVI

Видео: 704x528 (4:3), 25 fps, XviD ~ 1437 kbps avg, 0.155 bit/pixel
Аудио: 48 kHz, Dolby AC3 2.0, 192 kbps
Общее
Полное имя : Udivitelnye.priklyucheniya.Denisa.Korableva.1979.DVDRip_[Youtracker]_by_AVP Studio.avi
Формат : AVI
Формат/Информация : Audio Video Interleave
Размер файла : 1,46 Гбайт
Продолжительность : 2 ч. 7 м.
Общий поток : 1639 Кбит/сек
Программа кодирования : VirtualDubModRus 1.5.10.2 (build 2542/release)
Библиотека кодирования : VirtualDubMod build 2542/release

Видео
Идентификатор : 0
Формат : MPEG-4 Visual
Профиль формата : Advanced Simple@L5
Параметр BVOP формата : 1
Параметр QPel формата : Нет
Параметр GMC формата : Без точки перехода
Параметр матрицы формата : Выборочная
Идентификатор кодека : XVID
Идентификатор кодека/Подсказка : XviD
Продолжительность : 2 ч. 7 м.
Битрейт : 1437 Кбит/сек
Ширина : 704 пикселя
Высота : 528 пикселей
Соотношение сторон : 4:3
Частота кадров : 25,000 кадров/сек
Цветовое пространство : YUV
Субдискретизация насыщенности : 4:2:0
Битовая глубина : 8 бит
Тип развёртки : Прогрессивная
Метод сжатия : С потерями
Бит/(Пиксели*Кадры) : 0.155
Размер потока : 1,28 Гбайт (88%)
Библиотека кодирования : XviD 73

Аудио
Идентификатор : 1
Формат : AC-3
Формат/Информация : Audio Coding 3
Расширение режима : CM (complete main)
Идентификатор кодека : 2000
Продолжительность : 2 ч. 7 м.
Вид битрейта : Постоянный
Битрейт : 192 Кбит/сек
Каналы : 2 канала
Расположение каналов : Front: L R
Частота : 48,0 КГц
Битовая глубина : 16 бит
Метод сжатия : С потерями
Размер потока : 175 Мбайт (12%)
Выравнивание : Разделение по промежуткам
Продолжительность промежутка : 40 мс. (1,00 видеокадр)
Время предзагрузки промежутка : 500 мс





   Похожие торренты   Торрент   Размер 
В этой теме нет новых непрочитанных сообщений. Удивительные приключения Дениса Кораблева (1979) DVDRip-AVC от New-Team

71 | 7

1.46 ГБ

В этой теме нет новых непрочитанных сообщений. Удивительные приключения Дениса Кораблева (1979) DVDRip

5 | 4

2.19 ГБ

В этой теме нет новых непрочитанных сообщений. По секрету всему свету + Удивительные приключения Дениса Кораблёва (1976-1979) DVD5

13 | 19

8.18 ГБ

В этой теме нет новых непрочитанных сообщений. Жизнь и удивительные приключения Робинзона Крузо (1972) DVDRip-AVC

188 | 4

2.03 ГБ

В этой теме нет новых непрочитанных сообщений. Жизнь и удивительные приключения Робинзона Крузо (1972) DVDRip by FREEISLAND

129 | 20

2.44 ГБ

В этой теме нет новых непрочитанных сообщений. Приключения принца Флоризеля / Клуб самоубийц или Приключения титулованной особы (1979) DVDRip

35 | 5

3.28 ГБ

В этой теме нет новых непрочитанных сообщений. Приключения принца Флоризеля / Клуб самоубийц, или Приключения титулованной особы (1979) DVDRip-AVC

307 | 37

3.4 ГБ




Вы не можете начинать темы
Вы не можете отвечать на сообщения
Вы не можете редактировать свои сообщения
Вы не можете удалять свои сообщения
Вы не можете добавлять вложения

Перейти:  
Для Мосгорсуда, Роскомнадзора и рекламодателей: mosgorsud-torrent[собачка]yandex.ru
 Вход
ppkBB3cker v.2 © 2008-2014 @ PPK
[ Time : 0.025s | 15 Queries | GZIP : Off ]

Торрент трекер RUTOR.IN, Не можете зайти на rutor.org? Какой новый адрес рутор? Какое зеркало рутор? Не работает rutor.org и зеркала? Тогда наш торрент специально для вас. Rutor.in неофициальное зеркало rutor. В случае если у Вас заблокирован rutor или вдруг Вы не можете на него зайти, то Вы без труда сможете скачать бесплатно и без рекламы последние новинки кино, игр, сериалов и прочего у нас, на Rutor.in. Не нужно использовать прокси, чтобы зайти на рутор, достаточно воспользоваться нашим ресурсом. Все новые фильмы, игры, сериалы, книги и музыка за 2013 и 2014 годы через торрент бесплатно. Скачивайте фильмы в хорошем качестве, игры для пк, xbox, playstation без регистрации. У нас вы найдете новые Зарубежные сериалы и Русские сериалы 2013, 2014, 2015 годов. Оставайтесь с нами, качайте любимые фильмы, игры, сериалы, книги и музыку.
cron