img image001 image001 image001 image001 image001 image001 image001 image001 image001 image001 image001 image001 image001 image001 image001

Planets Sun Sun Sun
Статистика раздачи
Автор: PriZraK | Размер: 1.46 ГБ | Добавлен: 15 фев 2014
Раздают: 73    Качают: 5
Скачать торрент
Скачать торрент
Описание торрента

СообщениеДобавлено: 15 фев 2014 


#77
Страна: СССР, Финляндия
Производство: Мосфильм, Suomi-Filmi
Жанр: комедия
Год выпуска: 1979
Продолжительность: 01:33:50

Перевод: не требуется
Оригинальная аудиодорожка: русский
Cубтитры: нет

Режиссер: Леонид Гайдай, Ристо Орко / Risto Orko

В ролях:
Евгений Леонов, Вячеслав Невинный, Рита Полстер, Ритва Валкама, Георгий Вицин, Галина Польских, Сергей Филиппов, Нина Гребешкова, Михаил Пуговкин...

Описание:
Фильм снят по повести классика финской литературы Майю Лассила и освещает события 1910 года.
В сюжете повести много столь необходимых комедии "если бы". В доме Ихалайнена кончились спички и невозможно развести огонь для приготовления так любимого финнами кофе. Потом случайная встреча с приятелем, и как следствие того, нарушение данного двадцать лет назад зарока не брать в рот спиртного. Затем неожиданное свидание в городе Юсси Ватанена со своей старой подружкой. Добавьте к этому неповторимые, тонко обыгранные писателем черточки национального характера, своеобразного быта, приплюсуйте эксцентричность натур главных героев, то и дело попадающих в совершенно невероятные ситуации. И когда вы проделаете все это, то поймете, что данный литературный сюжет на редкость богат возможностями для трюковых съемок, для комедии положений, для словесного юмора, для кинематографической эксцентрики. А это как раз то, что требуется в хорошей комедии.…





Исходник: DVD5 R5
Тип релиза: DVDRip-AVC
Контейнер: MKV

Видео: 720->768x556 (1,381:1), 25 fps, H264 ~ 1771 kbps avg, 0.177 bit/pixel
Аудио: 48 kHz, Dolby AC3 5.1, 448 kbps
Общее
Полное имя : Za.spichkami.1979.DVDRip-AVC_[Youtracker]_by_AVP Studio.mkv
Формат : Matroska
Версия формата : Version 2
Размер файла : 1,46 Гбайт
Продолжительность : 1 ч. 33 м.
Общий поток : 2221 Кбит/сек
Дата кодирования : UTC 2013-10-20 05:49:03
Программа кодирования : mkvmerge v6.1.0 ('Old Devil') built on Mar 4 2013 09:10:42
Библиотека кодирования : libebml v1.3.0 + libmatroska v1.4.0

Видео
Идентификатор : 1
Формат : AVC
Формат/Информация : Advanced Video Codec
Профиль формата : High@L4.1
Параметр CABAC формата : Да
Параметр ReFrames формата : 6 кадров
Идентификатор кодека : V_MPEG4/ISO/AVC
Продолжительность : 1 ч. 33 м.
Битрейт : 1771 Кбит/сек
Ширина : 720 пикселей
Высота : 556 пикселей
Соотношение сторон : 1,381
Частота кадров : 25,000 кадров/сек
Цветовое пространство : YUV
Субдискретизация насыщенности : 4:2:0
Битовая глубина : 8 бит
Тип развёртки : Прогрессивная
Бит/(Пиксели*Кадры) : 0.177
Размер потока : 1,13 Гбайт (78%)
Библиотека кодирования : x264 core 138 r2356 a1d3d17
Настройки программы : cabac=1 / ref=6 / deblock=1:-2:-1 / analyse=0x3:0x113 / me=umh / subme=10 / psy=1 / psy_rd=1.00:0.05 / mixed_ref=1 / me_range=32 / chroma_me=1 / trellis=2 / 8x8dct=1 / cqm=0 / deadzone=21,11 / fast_pskip=0 / chroma_qp_offset=-3 / threads=3 / lookahead_threads=1 / sliced_threads=0 / nr=0 / decimate=0 / interlaced=0 / bluray_compat=0 / constrained_intra=0 / bframes=8 / b_pyramid=2 / b_adapt=2 / b_bias=0 / direct=3 / weightb=1 / open_gop=0 / weightp=2 / keyint=250 / keyint_min=25 / scenecut=40 / intra_refresh=0 / rc=2pass / mbtree=0 / bitrate=1771 / ratetol=1.0 / qcomp=0.60 / qpmin=0 / qpmax=69 / qpstep=4 / cplxblur=20.0 / qblur=0.5 / ip_ratio=1.40 / pb_ratio=1.30 / aq=1:1.00
Default : Да
Forced : Нет

Аудио
Идентификатор : 2
Формат : AC-3
Формат/Информация : Audio Coding 3
Расширение режима : CM (complete main)
Идентификатор кодека : A_AC3
Продолжительность : 1 ч. 33 м.
Вид битрейта : Постоянный
Битрейт : 448 Кбит/сек
Каналы : 6 каналов
Расположение каналов : Front: L C R, Side: L R, LFE
Частота : 48,0 КГц
Битовая глубина : 16 бит
Метод сжатия : С потерями
Размер потока : 301 Мбайт (20%)
Default : Да
Forced : Нет



На карте Финляндии есть и Липери, и Йоки, и Киихтелюс, — в провинции Северная Карелия. Съёмки же самого фильма проходили в г. Порвоо.
Фильм существует в двух версиях: на финском языке и русском, причём это относится и к песням, звучащим в фильме. Версия, смонтированная Орко, отличается большей продолжительностью, в версии Гайдая отсутствует несколько сцен.
Ранее повесть была экранизирована в Финляндии в 1938 году.



   Похожие торренты   Торрент   Размер 
В этой теме нет новых непрочитанных сообщений. За спичками (1979) DVDRip от New-Team

26 | 10

743.9 МБ

В этой теме нет новых непрочитанных сообщений. За спичками (1979) DVDRip от New-Team

512 | 62

1.46 ГБ

В этой теме нет новых непрочитанных сообщений. За спичками (1979) DVDRip

68 | 5

690.31 МБ

В этой теме нет новых непрочитанных сообщений. За спичками (1979) DVDRip от MediaClub | КПК

271 | 13

425.06 МБ

В этой теме нет новых непрочитанных сообщений. За спичками (1980) DVDRip

54 | 13

1.37 ГБ

В этой теме нет новых непрочитанных сообщений. За спичками (1980) DVDRip-AVC

10 | 5

1.46 ГБ

В этой теме нет новых непрочитанных сообщений. За спичками (1980) DVDRip AVC by FREEISLAND

80 | 6

2.19 ГБ




Вы не можете начинать темы
Вы не можете отвечать на сообщения
Вы не можете редактировать свои сообщения
Вы не можете удалять свои сообщения
Вы не можете добавлять вложения

Перейти:  
Для Мосгорсуда, Роскомнадзора и рекламодателей: mosgorsud-torrent[собачка]yandex.ru
 Вход
ppkBB3cker v.2 © 2008-2014 @ PPK
[ Time : 0.051s | 14 Queries | GZIP : On ]

Торрент трекер RUTOR.IN, Не можете зайти на rutor.org? Какой новый адрес рутор? Какое зеркало рутор? Не работает rutor.org и зеркала? Тогда наш торрент специально для вас. Rutor.in неофициальное зеркало rutor. В случае если у Вас заблокирован rutor или вдруг Вы не можете на него зайти, то Вы без труда сможете скачать бесплатно и без рекламы последние новинки кино, игр, сериалов и прочего у нас, на Rutor.in. Не нужно использовать прокси, чтобы зайти на рутор, достаточно воспользоваться нашим ресурсом. Все новые фильмы, игры, сериалы, книги и музыка за 2013 и 2014 годы через торрент бесплатно. Скачивайте фильмы в хорошем качестве, игры для пк, xbox, playstation без регистрации. У нас вы найдете новые Зарубежные сериалы и Русские сериалы 2013, 2014, 2015 годов. Оставайтесь с нами, качайте любимые фильмы, игры, сериалы, книги и музыку.