img image001 image001 image001 image001 image001 image001 image001 image001 image001 image001 image001 image001 image001 image001 image001

Planets Sun Sun Sun
Статистика раздачи
Автор: PriZraK | Размер: 743.9 МБ | Добавлен: 15 фев 2014
Раздают: 26    Качают: 10
Скачать торрент
Скачать торрент
Описание торрента

СообщениеДобавлено: 15 фев 2014 


#77
Страна: СССР, Финляндия
Производство: Мосфильм, Suomi-Filmi
Жанр: комедия
Год выпуска: 1979
Продолжительность: 01:33:50

Перевод: не требуется
Оригинальная аудиодорожка: русский
Cубтитры: нет

Режиссер: Леонид Гайдай, Ристо Орко / Risto Orko

В ролях:
Евгений Леонов, Вячеслав Невинный, Рита Полстер, Ритва Валкама, Георгий Вицин, Галина Польских, Сергей Филиппов, Нина Гребешкова, Михаил Пуговкин...

Описание:
Фильм снят по повести классика финской литературы Майю Лассила и освещает события 1910 года.
В сюжете повести много столь необходимых комедии "если бы". В доме Ихалайнена кончились спички и невозможно развести огонь для приготовления так любимого финнами кофе. Потом случайная встреча с приятелем, и как следствие того, нарушение данного двадцать лет назад зарока не брать в рот спиртного. Затем неожиданное свидание в городе Юсси Ватанена со своей старой подружкой. Добавьте к этому неповторимые, тонко обыгранные писателем черточки национального характера, своеобразного быта, приплюсуйте эксцентричность натур главных героев, то и дело попадающих в совершенно невероятные ситуации. И когда вы проделаете все это, то поймете, что данный литературный сюжет на редкость богат возможностями для трюковых съемок, для комедии положений, для словесного юмора, для кинематографической эксцентрики. А это как раз то, что требуется в хорошей комедии.…





Исходник: DVD5 R5
Тип релиза: DVDRip
Контейнер: AVI

Видео: 624x448 (1,393:1), 25 fps, XviD ~ 971 kbps avg, 0.139 bit/pixel
Аудио: 48 kHz, MP3 2.0, 128 kbps
Общее
Полное имя : Za.spichkami.1979.DVDRip-745_[Youtracker]_by_AVP Studio.avi
Формат : AVI
Формат/Информация : Audio Video Interleave
Размер файла : 744 Мбайт
Продолжительность : 1 ч. 33 м.
Общий поток : 1108 Кбит/сек
Программа кодирования : VirtualDubModRus 1.5.10.2 (build 2542/release)
Библиотека кодирования : VirtualDubMod build 2542/release

Видео
Идентификатор : 0
Формат : MPEG-4 Visual
Профиль формата : Advanced Simple@L5
Параметр BVOP формата : 1
Параметр QPel формата : Нет
Параметр GMC формата : Без точки перехода
Параметр матрицы формата : Выборочная
Идентификатор кодека : XVID
Идентификатор кодека/Подсказка : XviD
Продолжительность : 1 ч. 33 м.
Битрейт : 971 Кбит/сек
Ширина : 624 пикселя
Высота : 448 пикселей
Соотношение сторон : 1,393
Частота кадров : 25,000 кадров/сек
Цветовое пространство : YUV
Субдискретизация насыщенности : 4:2:0
Битовая глубина : 8 бит
Тип развёртки : Прогрессивная
Метод сжатия : С потерями
Бит/(Пиксели*Кадры) : 0.139
Размер потока : 651 Мбайт (88%)
Библиотека кодирования : XviD 73

Аудио
Идентификатор : 1
Формат : MPEG Audio
Версия формата : Version 1
Профиль формата : Layer 3
Идентификатор кодека : 55
Идентификатор кодека/Подсказка : MP3
Продолжительность : 1 ч. 33 м.
Вид битрейта : Постоянный
Битрейт : 128 Кбит/сек
Каналы : 2 канала
Частота : 48,0 КГц
Метод сжатия : С потерями
Размер потока : 85,9 Мбайт (12%)
Выравнивание : Соединение по промежуткам
Продолжительность промежутка : 40 мс. (1,00 видеокадр)
Время предзагрузки промежутка : 504 мс.
Библиотека кодирования : LAME3.99r
Настройки программы : -m s -V 4 -q 2 -lowpass 17 -b 128



На карте Финляндии есть и Липери, и Йоки, и Киихтелюс, — в провинции Северная Карелия. Съёмки же самого фильма проходили в г. Порвоо.
Фильм существует в двух версиях: на финском языке и русском, причём это относится и к песням, звучащим в фильме. Версия, смонтированная Орко, отличается большей продолжительностью, в версии Гайдая отсутствует несколько сцен.
Ранее повесть была экранизирована в Финляндии в 1938 году.



   Похожие торренты   Торрент   Размер 
В этой теме нет новых непрочитанных сообщений. За спичками (1979) DVDRip от New-Team

512 | 62

1.46 ГБ

В этой теме нет новых непрочитанных сообщений. За спичками (1979) DVDRip-AVC от New-Team

73 | 5

1.46 ГБ

В этой теме нет новых непрочитанных сообщений. За спичками (1979) DVDRip

68 | 5

690.31 МБ

В этой теме нет новых непрочитанных сообщений. За спичками (1979) DVDRip от MediaClub | КПК

271 | 13

425.06 МБ

В этой теме нет новых непрочитанных сообщений. За спичками (1980) DVDRip-AVC

10 | 5

1.46 ГБ

В этой теме нет новых непрочитанных сообщений. За спичками (1980) DVDRip

54 | 13

1.37 ГБ

В этой теме нет новых непрочитанных сообщений. За спичками (1980) DVDRip AVC by FREEISLAND

80 | 6

2.19 ГБ




Вы не можете начинать темы
Вы не можете отвечать на сообщения
Вы не можете редактировать свои сообщения
Вы не можете удалять свои сообщения
Вы не можете добавлять вложения

Перейти:  
Для Мосгорсуда, Роскомнадзора и рекламодателей: mosgorsud-torrent[собачка]yandex.ru
 Вход
ppkBB3cker v.2 © 2008-2014 @ PPK
[ Time : 0.023s | 14 Queries | GZIP : Off ]

Торрент трекер RUTOR.IN, Не можете зайти на rutor.org? Какой новый адрес рутор? Какое зеркало рутор? Не работает rutor.org и зеркала? Тогда наш торрент специально для вас. Rutor.in неофициальное зеркало rutor. В случае если у Вас заблокирован rutor или вдруг Вы не можете на него зайти, то Вы без труда сможете скачать бесплатно и без рекламы последние новинки кино, игр, сериалов и прочего у нас, на Rutor.in. Не нужно использовать прокси, чтобы зайти на рутор, достаточно воспользоваться нашим ресурсом. Все новые фильмы, игры, сериалы, книги и музыка за 2013 и 2014 годы через торрент бесплатно. Скачивайте фильмы в хорошем качестве, игры для пк, xbox, playstation без регистрации. У нас вы найдете новые Зарубежные сериалы и Русские сериалы 2013, 2014, 2015 годов. Оставайтесь с нами, качайте любимые фильмы, игры, сериалы, книги и музыку.