img image001 image001 image001 image001 image001 image001 image001 image001 image001 image001 image001 image001 image001 image001 image001

Planets Sun Sun Sun
Статистика раздачи
Автор: PriZraK | Размер: 1.46 ГБ | Добавлен: 15 фев 2014, 01:26
Раздают: 287    Качают: 19
Скачать торрент
Скачать торрент
Описание торрента

СообщениеДобавлено: 15 фев 2014, 01:26 


#77
Страна: СССР
Производство: Ленфильм
Жанр: мюзикл, комедия
Год выпуска: 1978
Продолжительность: 02:12:37 (01:04:55 + 01:07:43)

Перевод: не требуется
Оригинальная аудиодорожка: русский
Cубтитры: нет

Режиссер: Ян Фрид

В ролях:
Юрий Соломин, Людмила Максакова, Лариса Удовиченко, Виталий Соломин, Олег Видов, Игорь Дмитриев, Юрий Васильев, Евгений Весник, Гликерия Богданова-Чеснокова, Ольга Волкова...

Описание:
Жена узнает о том, что муж постоянно ей изменяет. Их общий друг и знакомый Фальк решает подшутить над бедной семейной парой. Своей служанке, мечтающей стать актрисой, он дает пригласительный билет на бал-маскарад и костюм «летучей мыши», чтобы та «охмурила» незадачливого ловеласа. Этот разговор слышит жена и принимает решение тоже отправиться на бал, чтобы снова влюбить в себя собственного мужа, но только под маской.…





Исходник: DVD9 R5
Тип релиза: DVDRip
Контейнер: AVI

Видео: 704x528 (4:3), 25 fps, XviD ~ 1434 kbps avg, 0.154 bit/pixel
Аудио: 48 kHz, MP3 2.0, 128 kbps
Общее
Полное имя : Letuchaya.mysh.1978.DVDRip-745_[Youtracker]_by_AVP Studio.avi
Формат : AVI
Формат/Информация : Audio Video Interleave
Размер файла : 1,46 Гбайт
Продолжительность : 2 ч. 12 м.
Общий поток : 1572 Кбит/сек
Программа кодирования : VirtualDubModRus 1.5.10.2 (build 2542/release)
Библиотека кодирования : VirtualDubMod build 2542/release

Видео
Идентификатор : 0
Формат : MPEG-4 Visual
Профиль формата : Advanced Simple@L5
Параметр BVOP формата : 1
Параметр QPel формата : Нет
Параметр GMC формата : Без точки перехода
Параметр матрицы формата : Выборочная
Идентификатор кодека : XVID
Идентификатор кодека/Подсказка : XviD
Продолжительность : 2 ч. 12 м.
Битрейт : 1434 Кбит/сек
Ширина : 704 пикселя
Высота : 528 пикселей
Соотношение сторон : 4:3
Частота кадров : 25,000 кадров/сек
Цветовое пространство : YUV
Субдискретизация насыщенности : 4:2:0
Битовая глубина : 8 бит
Тип развёртки : Прогрессивная
Метод сжатия : С потерями
Бит/(Пиксели*Кадры) : 0.154
Размер потока : 1,33 Гбайт (91%)
Библиотека кодирования : XviD 73

Аудио
Идентификатор : 1
Формат : MPEG Audio
Версия формата : Version 1
Профиль формата : Layer 3
Идентификатор кодека : 55
Идентификатор кодека/Подсказка : MP3
Продолжительность : 2 ч. 12 м.
Вид битрейта : Постоянный
Битрейт : 128 Кбит/сек
Каналы : 2 канала
Частота : 48,0 КГц
Метод сжатия : С потерями
Размер потока : 121 Мбайт (8%)
Выравнивание : Соединение по промежуткам
Продолжительность промежутка : 40 мс. (1,00 видеокадр)
Время предзагрузки промежутка : 504 мс.
Библиотека кодирования : LAME3.99r
Настройки программы : -m s -V 4 -q 2 -lowpass 17 -b 128



Летучая мышь (нем. Die Fledermaus) — оперетта австрийского композитора Иоганна Штрауса (сына). Немецкое либретто Карла Хаффнера и Рихарда Жене на основе фарса немецкого драматурга Юлиуса Родериха Бенедикса «Тюремное заключение» и водевиля французских авторов Анри Мельяка и Людовика Галеви «Новогодний вечер» (фр. Le réveillon). Премьера состоялась 5 апреля 1874 года в театре «Ан дер Вин».



   Похожие торренты   Торрент   Размер 
В этой теме нет новых непрочитанных сообщений. Летучая мышь (1978) DVDRip от New-Team

10 | 10

2.19 ГБ

В этой теме нет новых непрочитанных сообщений. Летучая мышь (1978) DVDRip-AVC от New-Team

26 | 5

2.19 ГБ

В этой теме нет новых непрочитанных сообщений. Летучая мышь (2005) DVDRip от Киномагия

4 | 5

1.47 ГБ

В этой теме нет новых непрочитанных сообщений. Летучая мышь (1979) DVDRip | Реставрация

115 | 10

2.57 ГБ

В этой теме нет новых непрочитанных сообщений. Летучая мышь / Die Fledermaus (1946) DVDRip | L1

3 | 2

1.3 ГБ

В этой теме нет новых непрочитанных сообщений. Летучая мышь (1979) DVDRip-AVC от olegek70 | Реставрация

8 | 8

2.04 ГБ

В этой теме нет новых непрочитанных сообщений. Летучая мышь (1979) DVD 9 | Реставрация

14 | 7

7.8 ГБ




Вы не можете начинать темы
Вы не можете отвечать на сообщения
Вы не можете редактировать свои сообщения
Вы не можете удалять свои сообщения
Вы не можете добавлять вложения

Перейти:  
Для Мосгорсуда, Роскомнадзора и рекламодателей: mosgorsud-torrent[собачка]yandex.ru
Настройки
ppkBB3cker v.2 © 2008-2014 @ PPK
[ Time : 0.015s | 16 Queries | GZIP : Off ]
CGP [Extreme] output time : 0.00018s | 0 Queries | GZIP : Off

Торрент трекер RUTOR.IN, Не можете зайти на rutor.org? Какой новый адрес рутор? Какое зеркало рутор? Не работает rutor.org и зеркала? Тогда наш торрент специально для вас. Rutor.in неофициальное зеркало rutor. В случае если у Вас заблокирован rutor или вдруг Вы не можете на него зайти, то Вы без труда сможете скачать бесплатно и без рекламы последние новинки кино, игр, сериалов и прочего у нас, на Rutor.in. Не нужно использовать прокси, чтобы зайти на рутор, достаточно воспользоваться нашим ресурсом. Все новые фильмы, игры, сериалы, книги и музыка за 2013 и 2014 годы через торрент бесплатно. Скачивайте фильмы в хорошем качестве, игры для пк, xbox, playstation без регистрации. У нас вы найдете новые Зарубежные сериалы и Русские сериалы 2013, 2014, 2015 годов. Оставайтесь с нами, качайте любимые фильмы, игры, сериалы, книги и музыку.