img image001 image001 image001 image001 image001 image001 image001 image001 image001 image001 image001 image001 image001 image001 image001

Planets Sun Sun Sun
Статистика раздачи
Автор: PriZraK | Размер: 3.63 ГБ | Добавлен: 15 фев 2014
Раздают: 31    Качают: 8
Скачать торрент
Скачать торрент
Описание торрента

СообщениеДобавлено: 15 фев 2014 


#77
Страна: СССР
Производство: Гостелерадио, Одесская киностудия
Жанр: мюзикл, приключения
Год выпуска: 1979
Продолжительность: 04:08:34 (01:25:22 + 01:32:12 + 01:11:00)

Перевод: не требуется
Оригинальная аудиодорожка: русский
Cубтитры: нет

Режиссер: Георгий Юнгвальд-Хилькевич

В ролях: Михаил Боярский, Игорь Старыгин, Вениамин Смехов, Валентин Смирнитский, Ирина Алферова, Маргарита Терехова, Лев Дуров, Александр Трофимов, Владимир Балон, Елена Цыплакова, Борис Клюев, Юрий Дубровин, Леонид Каневский, Юрий Шерстнев, Евгений Данчевский, Виктор Павловский, Владимир Долинский...

Описание: Франция, начала XVII века. Бедный гасконский дворянин д’Артаньян отправляется в Париж для того, чтобы вступить в роту королевских мушкетёров. В Менге он натыкается на человека со шрамом, завязывает драку и теряет рекомендательное письмо, адресованное г-ну де Тревилю. В Париже он замечает этого таинственного незнакомца и гонится за ним. На бегу он неосторожно толкает раненого Атоса, причинив ему боль, случайно оскорбляет Портоса и Арамиса, и все трое вызывают д’Артаньяна на дуэль. На месте назначенной встречи Д’Артаньян и Атос уже готовы скрестить свои шпаги друг против друга, как вдруг появляется отряд гвардейцев кардинала. Мушкетёры принимают решение атаковать гвардейцев и одерживают победу. После этого д’Артаньян становится другом Атоса, Портоса и Арамиса. Четверо друзей вступают в единоборство с всесильным кардиналом Ришелье и коварной Миледи, спасают честь королевы Франции и участвуют в войне с Англией и в осаде Ла-Рошели. После окончания осады Атос, Портос и Арамис собираются оставить военную службу, а д’Артаньян становится лейтенантом королевских мушкетёров. Они договариваются встретиться двадцать лет спустя…





Исходник: DVD9+DVD5 Twister
Тип релиза: DVDRip-AVC
Контейнер: MKV

Видео: 712->768x572 (4:3), 25 fps, H264 ~ 1708 kbps avg, 0.168 bit/pixel
Аудио: 48 kHz, Dolby AC3 5.1, 384 kbps
1-я серия — «Атос, Портос, Арамис и д’Артаньян»;
2-я серия — «Подвески королевы»;
3-я серия — «Приключения продолжаются».

Общее
Полное имя : D`Artanyan.i.tri.mushketera.1979.DVDRip-AVC_[Youtracker]_by_AVP Studio.mkv
Формат : Matroska
Версия формата : Version 2
Размер файла : 1,25 Гбайт
Продолжительность : 1 ч. 25 м.
Общий поток : 2094 Кбит/сек
Дата кодирования : UTC 2013-10-19 04:04:48
Программа кодирования : mkvmerge v6.1.0 ('Old Devil') built on Mar 4 2013 09:10:42
Библиотека кодирования : libebml v1.3.0 + libmatroska v1.4.0

Видео
Идентификатор : 1
Формат : AVC
Формат/Информация : Advanced Video Codec
Профиль формата : High@L4.1
Параметр CABAC формата : Да
Параметр ReFrames формата : 6 кадров
Идентификатор кодека : V_MPEG4/ISO/AVC
Продолжительность : 1 ч. 25 м.
Битрейт : 1708 Кбит/сек
Ширина : 712 пикселей
Высота : 572 пикселя
Соотношение сторон : 4:3
Соотношение сторон в оригинале : 4:3
Частота кадров : 25,000 кадров/сек
Цветовое пространство : YUV
Субдискретизация насыщенности : 4:2:0
Битовая глубина : 8 бит
Тип развёртки : Прогрессивная
Бит/(Пиксели*Кадры) : 0.168
Размер потока : 1019 Мбайт (80%)
Библиотека кодирования : x264 core 138 r2356 a1d3d17
Настройки программы : cabac=1 / ref=6 / deblock=1:-2:-1 / analyse=0x3:0x113 / me=umh / subme=10 / psy=1 / psy_rd=1.00:0.05 / mixed_ref=1 / me_range=32 / chroma_me=1 / trellis=2 / 8x8dct=1 / cqm=0 / deadzone=21,11 / fast_pskip=0 / chroma_qp_offset=-3 / threads=3 / lookahead_threads=1 / sliced_threads=0 / nr=0 / decimate=0 / interlaced=0 / bluray_compat=0 / constrained_intra=0 / bframes=8 / b_pyramid=2 / b_adapt=2 / b_bias=0 / direct=3 / weightb=1 / open_gop=0 / weightp=2 / keyint=250 / keyint_min=25 / scenecut=40 / intra_refresh=0 / rc=2pass / mbtree=0 / bitrate=1708 / ratetol=1.0 / qcomp=0.60 / qpmin=0 / qpmax=69 / qpstep=4 / cplxblur=20.0 / qblur=0.5 / ip_ratio=1.40 / pb_ratio=1.30 / aq=1:1.00
Default : Да
Forced : Нет

Аудио
Идентификатор : 2
Формат : AC-3
Формат/Информация : Audio Coding 3
Расширение режима : CM (complete main)
Идентификатор кодека : A_AC3
Продолжительность : 1 ч. 25 м.
Вид битрейта : Постоянный
Битрейт : 384 Кбит/сек
Каналы : 6 каналов
Расположение каналов : Front: L C R, Side: L R, LFE
Частота : 48,0 КГц
Битовая глубина : 16 бит
Метод сжатия : С потерями
Размер потока : 234 Мбайт (18%)
Default : Да
Forced : Нет



Всеми любимых сегодня героев могли играть бы совсем другие артисты: на роль д`Артаньяна планировали пригласить Александра Абдулова, на роль Атоса — Василия Ливанова, на роль миледи — Елену Соловей, на роль Констанции — Евгению Симонову, на роль Бекингема — Игоря Костолевского, а на роль Портоса пробовался Георгий Мартиросьян.
Д’Артаньян, как гасконец, в начале фильма появляется в берете — национальном головном уборе басков.
По постановке фильма де Жюссак (в книге появляющийся всего один раз) подменяет собой по ходу действия Рошфора (это сохранится и в следующих частях фильма) и де Варда.
Песни Арамиса «Хоть Бог и запретил дуэли…» и «Приятно вспомнить в час заката…» исполнил солист ВИА «Коробейники» Владимир Чуйкин.
В вышедшем на экраны варианте «Баллады Атоса» второй куплет оригинального текста песни отсутствует полностью, пятый куплет оригинала присутствует, но в урезанном варианте. Куплеты эти повествуют о «брате» невесты графа де Ла Фер. Это изменение текста породило много ошибочных трактований фразы «Обоих в омут, и конец» (под словом «обоих» изначально подразумевались невеста графа и её «брат»). Соответственно, изменён и диалог Атоса с палачом: в книге Атосу он нужен только как палач, и его причастность к делу миледи оказывается полной неожиданностью для всех остальных, в фильме Атос посвящён во все подробности изначально, а о несчастном священнике оставлена только реплика палача: «Она (Миледи) погубила моего брата».
Камзол Атоса (Вениамин Смехов) можно увидеть на незадачливом женихе (Николай Караченцов) в фильме «Собака на сене»



   Похожие торренты   Торрент   Размер 
В этой теме нет новых непрочитанных сообщений. Д`Артаньян и три мушкетера (1979) DVDRip от New-Team

88 | 13

3.64 ГБ

В этой теме нет новых непрочитанных сообщений. Д`Артаньян и три мушкетера (1979) DVDRip от New-Team

109 | 9

2.18 ГБ

В этой теме нет новых непрочитанных сообщений. Д`Артаньян и три мушкетера (1979) DVDRip

123 | 62

4.37 ГБ

В этой теме нет новых непрочитанных сообщений. Д`Артаньян и три мушкетера (1979) DVDRip-AVC от ExKinoRay

317 | 110

6.18 ГБ

В этой теме нет новых непрочитанных сообщений. Д'Артаньян и три мушкетера (1979) DVDRip от MediaClub

74 | 5

2.9 ГБ

В этой теме нет новых непрочитанных сообщений. Д`Артаньян и три мушкетера (1979) DVDRip от MediaClub

371 | 38

1.46 ГБ

В этой теме нет новых непрочитанных сообщений. Д'Артаньян и три мушкетера (1979) DVDRip от MediaClub

277 | 9

4.34 ГБ




Вы не можете начинать темы
Вы не можете отвечать на сообщения
Вы не можете редактировать свои сообщения
Вы не можете удалять свои сообщения
Вы не можете добавлять вложения

Перейти:  
Для Мосгорсуда, Роскомнадзора и рекламодателей: mosgorsud-torrent[собачка]yandex.ru
 Вход
ppkBB3cker v.2 © 2008-2014 @ PPK
[ Time : 9.035s | 14 Queries | GZIP : Off ]

Торрент трекер RUTOR.IN, Не можете зайти на rutor.org? Какой новый адрес рутор? Какое зеркало рутор? Не работает rutor.org и зеркала? Тогда наш торрент специально для вас. Rutor.in неофициальное зеркало rutor. В случае если у Вас заблокирован rutor или вдруг Вы не можете на него зайти, то Вы без труда сможете скачать бесплатно и без рекламы последние новинки кино, игр, сериалов и прочего у нас, на Rutor.in. Не нужно использовать прокси, чтобы зайти на рутор, достаточно воспользоваться нашим ресурсом. Все новые фильмы, игры, сериалы, книги и музыка за 2013 и 2014 годы через торрент бесплатно. Скачивайте фильмы в хорошем качестве, игры для пк, xbox, playstation без регистрации. У нас вы найдете новые Зарубежные сериалы и Русские сериалы 2013, 2014, 2015 годов. Оставайтесь с нами, качайте любимые фильмы, игры, сериалы, книги и музыку.