img image001 image001 image001 image001 image001 image001 image001 image001 image001 image001 image001 image001 image001 image001 image001

Planets Sun Sun Sun
Статистика раздачи
Автор: PriZraK | Размер: 2.18 ГБ | Добавлен: 15 фев 2014
Раздают: 109    Качают: 9
Скачать торрент
Скачать торрент
Описание торрента

СообщениеДобавлено: 15 фев 2014 


#77
Страна: СССР
Производство: Гостелерадио, Одесская киностудия
Жанр: мюзикл, приключения
Год выпуска: 1979
Продолжительность: 04:08:34 (01:25:22 + 01:32:12 + 01:11:00)

Перевод: не требуется
Оригинальная аудиодорожка: русский
Cубтитры: нет

Режиссер: Георгий Юнгвальд-Хилькевич

В ролях: Михаил Боярский, Игорь Старыгин, Вениамин Смехов, Валентин Смирнитский, Ирина Алферова, Маргарита Терехова, Лев Дуров, Александр Трофимов, Владимир Балон, Елена Цыплакова, Борис Клюев, Юрий Дубровин, Леонид Каневский, Юрий Шерстнев, Евгений Данчевский, Виктор Павловский, Владимир Долинский...

Описание: Франция, начала XVII века. Бедный гасконский дворянин д’Артаньян отправляется в Париж для того, чтобы вступить в роту королевских мушкетёров. В Менге он натыкается на человека со шрамом, завязывает драку и теряет рекомендательное письмо, адресованное г-ну де Тревилю. В Париже он замечает этого таинственного незнакомца и гонится за ним. На бегу он неосторожно толкает раненого Атоса, причинив ему боль, случайно оскорбляет Портоса и Арамиса, и все трое вызывают д’Артаньяна на дуэль. На месте назначенной встречи Д’Артаньян и Атос уже готовы скрестить свои шпаги друг против друга, как вдруг появляется отряд гвардейцев кардинала. Мушкетёры принимают решение атаковать гвардейцев и одерживают победу. После этого д’Артаньян становится другом Атоса, Портоса и Арамиса. Четверо друзей вступают в единоборство с всесильным кардиналом Ришелье и коварной Миледи, спасают честь королевы Франции и участвуют в войне с Англией и в осаде Ла-Рошели. После окончания осады Атос, Портос и Арамис собираются оставить военную службу, а д’Артаньян становится лейтенантом королевских мушкетёров. Они договариваются встретиться двадцать лет спустя…





Исходник: DVD9+DVD5 Twister
Тип релиза: DVDRip
Контейнер: AVI

Видео: 640x480 (4:3), 25 fps, XviD ~ 1120 kbps avg, 0.146 bit/pixel
Аудио: 48 kHz, MP3 2.0, 128 kbps
1-я серия — «Атос, Портос, Арамис и д’Артаньян»;
2-я серия — «Подвески королевы»;
3-я серия — «Приключения продолжаются».

Общее
Полное имя : D`Artanyan.i.tri.mushketera.1979.DVDRip-2.18_[Youtracker]_by_AVP Studio.avi
Формат : AVI
Формат/Информация : Audio Video Interleave
Размер файла : 768 Мбайт
Продолжительность : 1 ч. 25 м.
Общий поток : 1258 Кбит/сек
Программа кодирования : VirtualDubModRus 1.5.10.2 (build 2542/release)
Библиотека кодирования : VirtualDubMod build 2542/release

Видео
Идентификатор : 0
Формат : MPEG-4 Visual
Профиль формата : Advanced Simple@L5
Параметр BVOP формата : 1
Параметр QPel формата : Нет
Параметр GMC формата : Без точки перехода
Параметр матрицы формата : Выборочная
Идентификатор кодека : XVID
Идентификатор кодека/Подсказка : XviD
Продолжительность : 1 ч. 25 м.
Битрейт : 1120 Кбит/сек
Ширина : 640 пикселей
Высота : 480 пикселей
Соотношение сторон : 4:3
Частота кадров : 25,000 кадров/сек
Цветовое пространство : YUV
Субдискретизация насыщенности : 4:2:0
Битовая глубина : 8 бит
Тип развёртки : Прогрессивная
Метод сжатия : С потерями
Бит/(Пиксели*Кадры) : 0.146
Размер потока : 684 Мбайт (89%)
Библиотека кодирования : XviD 73

Аудио
Идентификатор : 1
Формат : MPEG Audio
Версия формата : Version 1
Профиль формата : Layer 3
Идентификатор кодека : 55
Идентификатор кодека/Подсказка : MP3
Продолжительность : 1 ч. 25 м.
Вид битрейта : Постоянный
Битрейт : 128 Кбит/сек
Каналы : 2 канала
Частота : 48,0 КГц
Метод сжатия : С потерями
Размер потока : 78,2 Мбайт (10%)
Выравнивание : Соединение по промежуткам
Продолжительность промежутка : 40 мс. (1,00 видеокадр)
Время предзагрузки промежутка : 504 мс.
Библиотека кодирования : LAME3.99r
Настройки программы : -m s -V 4 -q 2 -lowpass 17 -b 128



Всеми любимых сегодня героев могли играть бы совсем другие артисты: на роль д`Артаньяна планировали пригласить Александра Абдулова, на роль Атоса — Василия Ливанова, на роль миледи — Елену Соловей, на роль Констанции — Евгению Симонову, на роль Бекингема — Игоря Костолевского, а на роль Портоса пробовался Георгий Мартиросьян.
Д’Артаньян, как гасконец, в начале фильма появляется в берете — национальном головном уборе басков.
По постановке фильма де Жюссак (в книге появляющийся всего один раз) подменяет собой по ходу действия Рошфора (это сохранится и в следующих частях фильма) и де Варда.
Песни Арамиса «Хоть Бог и запретил дуэли…» и «Приятно вспомнить в час заката…» исполнил солист ВИА «Коробейники» Владимир Чуйкин.
В вышедшем на экраны варианте «Баллады Атоса» второй куплет оригинального текста песни отсутствует полностью, пятый куплет оригинала присутствует, но в урезанном варианте. Куплеты эти повествуют о «брате» невесты графа де Ла Фер. Это изменение текста породило много ошибочных трактований фразы «Обоих в омут, и конец» (под словом «обоих» изначально подразумевались невеста графа и её «брат»). Соответственно, изменён и диалог Атоса с палачом: в книге Атосу он нужен только как палач, и его причастность к делу миледи оказывается полной неожиданностью для всех остальных, в фильме Атос посвящён во все подробности изначально, а о несчастном священнике оставлена только реплика палача: «Она (Миледи) погубила моего брата».
Камзол Атоса (Вениамин Смехов) можно увидеть на незадачливом женихе (Николай Караченцов) в фильме «Собака на сене»



   Похожие торренты   Торрент   Размер 
В этой теме нет новых непрочитанных сообщений. Д`Артаньян и три мушкетера (1979) DVDRip от New-Team

88 | 13

3.64 ГБ

В этой теме нет новых непрочитанных сообщений. Д`Артаньян и три мушкетера (1979) DVDRip-AVC от New-Team

31 | 8

3.63 ГБ

В этой теме нет новых непрочитанных сообщений. Д`Артаньян и три мушкетера (1979) DVDRip

123 | 62

4.37 ГБ

В этой теме нет новых непрочитанных сообщений. Д`Артаньян и три мушкетера (1979) DVDRip от MediaClub

371 | 38

1.46 ГБ

В этой теме нет новых непрочитанных сообщений. Д`Артаньян и три мушкетера (1979) DVDRip-AVC от ExKinoRay

317 | 110

6.18 ГБ

В этой теме нет новых непрочитанных сообщений. Д'Артаньян и три мушкетера (1979) DVDRip от MediaClub

277 | 9

4.34 ГБ

В этой теме нет новых непрочитанных сообщений. Д'Артаньян и три мушкетера (1979) DVDRip от MediaClub

74 | 5

2.9 ГБ




Вы не можете начинать темы
Вы не можете отвечать на сообщения
Вы не можете редактировать свои сообщения
Вы не можете удалять свои сообщения
Вы не можете добавлять вложения

Перейти:  
Для Мосгорсуда, Роскомнадзора и рекламодателей: mosgorsud-torrent[собачка]yandex.ru
 Вход
ppkBB3cker v.2 © 2008-2014 @ PPK
[ Time : 0.069s | 14 Queries | GZIP : Off ]

Торрент трекер RUTOR.IN, Не можете зайти на rutor.org? Какой новый адрес рутор? Какое зеркало рутор? Не работает rutor.org и зеркала? Тогда наш торрент специально для вас. Rutor.in неофициальное зеркало rutor. В случае если у Вас заблокирован rutor или вдруг Вы не можете на него зайти, то Вы без труда сможете скачать бесплатно и без рекламы последние новинки кино, игр, сериалов и прочего у нас, на Rutor.in. Не нужно использовать прокси, чтобы зайти на рутор, достаточно воспользоваться нашим ресурсом. Все новые фильмы, игры, сериалы, книги и музыка за 2013 и 2014 годы через торрент бесплатно. Скачивайте фильмы в хорошем качестве, игры для пк, xbox, playstation без регистрации. У нас вы найдете новые Зарубежные сериалы и Русские сериалы 2013, 2014, 2015 годов. Оставайтесь с нами, качайте любимые фильмы, игры, сериалы, книги и музыку.