img image001 image001 image001 image001 image001 image001 image001 image001 image001 image001 image001 image001 image001 image001 image001

Planets Sun Sun Sun
Статистика раздачи
Автор: PriZraK | Размер: 4.81 ГБ | Добавлен: 15 фев 2014
Раздают: 48    Качают: 15
Скачать торрент
Скачать торрент
Описание торрента

СообщениеДобавлено: 15 фев 2014 




Оригинальное название: Околофутбола
Год выпуска: 2013
Жанр: Драма, криминал
Выпущено: Россия, Фонд кино, Front Line Studio, Кинокомпания CTB
Режиссер: Антон Борматов
В ролях: Александр Ратников, Павел Ерлыков, Григорий Иванец, Иван Фоминов, Дарья Мингазетдинова, Владимир Царулков, Юлия Маньковская

О фильме: Фильм о самой закрытой части футбольных болельщиков — околофутбольных хулиганах. Они — самые агрессивные и жестокие представители мира футбольных фанатов. Они — элита околофутбола. Кем бы они ни были в обычной жизни — студентами или банкирами, музыкантами или автомеханиками, на самом деле все они — одна «фирма». Попасть в «фирму» очень сложно, но если ты в ней оказался — это на всю жизнь. И обратного пути нет.

Качество: BDRip (720p)
Видео: MPEG-4 AVC, 5073 Кбит/с, 1280x720
Аудио: Русский (AC3, 6 ch, 448 Кбит/с), (DTS, 6 ch, 1510 Кбит/с)
Размер: 4.81 ГБ
Продолжительность: 01:32:57
Язык: Русский
Общее
Уникальный идентификатор : 247299568715666041085196348826628223387 (0xBA0C2A1A347432018A3609BBBD11719B)
Полное имя : D:koloF00tbola.2013.O.BDRip.720p.mkv
Формат : Matroska
Версия формата : Version 2
Размер файла : 4,81 Гбайт
Продолжительность : 1 ч. 36 м.
Общий поток : 7113 Кбит/сек
Дата кодирования : UTC 2013-11-16 05:23:08
Программа кодирования : mkvmerge v6.3.0 ('You can't stop me!') built on Jun 28 2013 20:09:41
Библиотека кодирования : libebml v1.3.0 + libmatroska v1.4.0
Видео
Идентификатор : 1
Формат : AVC
Формат/Информация : Advanced Video Codec
Профиль формата : High@L4.1
Параметр CABAC формата : Да
Параметр ReFrames формата : 9 кадров
Идентификатор кодека : V_MPEG4/ISO/AVC
Продолжительность : 1 ч. 36 м.
Битрейт : 5014 Кбит/сек
Ширина : 1280 пикселей
Высота : 720 пикселей
Соотношение сторон : 16:9
Режим частоты кадров : Постоянный
Частота кадров : 24,000 кадра/сек
Цветовое пространство : YUV
Субдискретизация насыщенности : 4:2:0
Битовая глубина : 8 бит
Тип развёртки : Прогрессивная
Бит/(Пиксели*Кадры) : 0.227
Размер потока : 3,39 Гбайт (70%)
Заголовок : Okolofootboll.2013.720p.BluRay.Rus
Библиотека кодирования : x264 core 138 r2359+704+48 3f879a0 tMod [8-bit@all X86_64]
Настройки программы : cabac=1 / ref=9 / deblock=1:-3:-3 / analyse=0x3:0x133 / me=umh / subme=11 / psy=1 / fade_compensate=0.00 / psy_rd=1.00:0.00 / mixed_ref=1 / me_range=32 / chroma_me=1 / trellis=2 / 8x8dct=1 / cqm=0 / deadzone=21,11 / fast_pskip=0 / chroma_qp_offset=-2 / threads=12 / lookahead_threads=2 / sliced_threads=0 / nr=0 / decimate=1 / interlaced=0 / bluray_compat=0 / constrained_intra=0 / fgo=0 / bframes=7 / b_pyramid=2 / b_adapt=2 / b_bias=0 / direct=1 / weightb=1 / open_gop=0 / weightp=2 / keyint=240 / keyint_min=24 / scenecut=40 / intra_refresh=0 / rc_lookahead=60 / rc=crf / mbtree=0 / crf=17.7000 / qcomp=0.60 / qpmin=0:0:0 / qpmax=69:69:69 / qpstep=4 / vbv_maxrate=50000 / vbv_bufsize=62500 / crf_max=0.0 / nal_hrd=none / ip_ratio=1.30 / pb_ratio=1.20 / aq=2:0.80 / aq-sensitivity=10.00 / aq-factor=1.00:1.00:1.00 / aq2=0 / aq3=0
Язык : Russian
Default : Да
Forced : Нет
Основные цвета : BT.709
Характеристики трансфера : BT.709
Коэффициенты матрицы : BT.709
Аудио #1
Идентификатор : 2
Формат : AC-3
Формат/Информация : Audio Coding 3
Расширение режима : CM (complete main)
Параметр Endianness формата : Big
Идентификатор кодека : A_AC3
Продолжительность : 1 ч. 36 м.
Вид битрейта : Постоянный
Битрейт : 448 Кбит/сек
Каналы : 6 каналов
Расположение каналов : Front: L C R, Side: L R, LFE
Частота : 48,0 КГц
Битовая глубина : 16 бит
Метод сжатия : С потерями
Размер потока : 310 Мбайт (6%)
Язык : Russian
Default : Да
Forced : Нет
Аудио #2
Идентификатор : 3
Формат : DTS
Формат/Информация : Digital Theater Systems
Режим : 16
Параметр Endianness формата : Big
Идентификатор кодека : A_DTS
Продолжительность : 1 ч. 36 м.
Вид битрейта : Постоянный
Битрейт : 1509 Кбит/сек
Каналы : 6 каналов
Расположение каналов : Front: L C R, Side: L R, LFE
Частота : 48,0 КГц
Битовая глубина : 16 бит
Метод сжатия : С потерями
Размер потока : 1,02 Гбайт (21%)
Язык : Russian
Default : Нет
Forced : Нет
Меню
00:00:00.000 : ru:Chapter 1
00:10:58.291 : ru:Chapter 2
00:23:09.250 : ru:Chapter 3
00:36:29.958 : ru:Chapter 4
00:48:11.250 : ru:Chapter 5
01:01:39.458 : ru:Chapter 6
01:13:50.000 : ru:Chapter 7
01:23:49.666 : ru:Chapter 8






   Похожие торренты   Торрент   Размер 
В этой теме нет новых непрочитанных сообщений. Околофутбола (2013) BDRip 720p от leonardo 59 & Scarabey | Лицензия

135 | 7

2.9 ГБ

В этой теме нет новых непрочитанных сообщений. Околофутбола (2013) BDRip от HQCLUB | Лицензия

50 | 3

1.45 ГБ

В этой теме нет новых непрочитанных сообщений. Околофутбола (2013) BDRip-AVC от HELLYWOOD | Лицензия

1 | 2

1.81 ГБ

В этой теме нет новых непрочитанных сообщений. Околофутбола (2013) BDRip-AVC от New-Team | Лицензия

292 | 9

744.85 МБ

В этой теме нет новых непрочитанных сообщений. Околофутбола (2013) BDRip-AVC от MediaClub | Лицензия

431 | 19

2.33 ГБ

В этой теме нет новых непрочитанных сообщений. Околофутбола (2013) BDRip-AVC от New-Team | Лицензия

785 | 28

2.19 ГБ

В этой теме нет новых непрочитанных сообщений. Околофутбола (2013) BDRip-AVC от New-Team | Лицензия

156 | 10

1.45 ГБ




Вы не можете начинать темы
Вы не можете отвечать на сообщения
Вы не можете редактировать свои сообщения
Вы не можете удалять свои сообщения
Вы не можете добавлять вложения

Перейти:  
Для Мосгорсуда, Роскомнадзора и рекламодателей: mosgorsud-torrent[собачка]yandex.ru
 Вход
ppkBB3cker v.2 © 2008-2014 @ PPK
[ Time : 0.049s | 16 Queries | GZIP : Off ]
CGP output time : 0.025s | 5 Queries | GZIP : Off

Торрент трекер RUTOR.IN, Не можете зайти на rutor.org? Какой новый адрес рутор? Какое зеркало рутор? Не работает rutor.org и зеркала? Тогда наш торрент специально для вас. Rutor.in неофициальное зеркало rutor. В случае если у Вас заблокирован rutor или вдруг Вы не можете на него зайти, то Вы без труда сможете скачать бесплатно и без рекламы последние новинки кино, игр, сериалов и прочего у нас, на Rutor.in. Не нужно использовать прокси, чтобы зайти на рутор, достаточно воспользоваться нашим ресурсом. Все новые фильмы, игры, сериалы, книги и музыка за 2013 и 2014 годы через торрент бесплатно. Скачивайте фильмы в хорошем качестве, игры для пк, xbox, playstation без регистрации. У нас вы найдете новые Зарубежные сериалы и Русские сериалы 2013, 2014, 2015 годов. Оставайтесь с нами, качайте любимые фильмы, игры, сериалы, книги и музыку.