img image001 image001 image001 image001 image001 image001 image001 image001 image001 image001 image001 image001 image001 image001 image001

Planets Sun Sun Sun
Статистика раздачи
Автор: PriZraK | Размер: 17.33 ГБ | Добавлен: 15 фев 2014
Раздают: 10    Качают: 5
Скачать торрент
Скачать торрент
Описание торрента

СообщениеДобавлено: 15 фев 2014 



Информация о фильме

Оригинальное название: Околофутбола
Год выпуска: 2013
Жанр: Драма, криминал
Выпущено: Россия, Фонд кино, Front Line Studio, Кинокомпания CTB
Режиссер: Антон Борматов
В ролях: Александр Ратников, Павел Ерлыков, Григорий Иванец, Иван Фоминов, Дарья Мингазетдинова, Владимир Царулков, Юлия Маньковская
О фильме: Фильм о самой закрытой части футбольных болельщиков — околофутбольных хулиганах. Они — самые агрессивные и жестокие представители мира футбольных фанатов. Они — элита околофутбола. Кем бы они ни были в обычной жизни — студентами или банкирами, музыкантами или автомеханиками, на самом деле все они — одна «фирма». Попасть в «фирму» очень сложно, но если ты в ней оказался — это на всю жизнь. И обратного пути нет.

Файл

Качество: Blu-Ray Remux (1080p)
Видео: MPEG-4 AVC, 24112 Кбит/с, 1920x1080, 24 кадр/с
Аудио: DTS, 6 ch, 1510 Кбит/с
Размер: 17.33 ГБ
Продолжительность: 01:32:57
Язык: Русский
Общее
Уникальный идентификатор : 199112332861098831225395717927946851455 (0x95CBA3F2437A129B8B184DFA90CA947F)
Полное имя : C:ЗагрузкиOkolofutbola.2013.BDRemux.(1080p).ExKinoRay.mkv
Формат : Matroska
Версия формата : Version 2
Размер файла : 17,3 Гбайт
Продолжительность : 1 ч. 36 м.
Режим общего битрейта : Переменный
Общий поток : 25,6 Мбит/сек
Название фильма : Околофутбола. 2013. Сборка ремукса: ollan
Дата кодирования : UTC 2013-11-16 12:53:20
Программа кодирования : mkvmerge v5.6.0 ('Kenya Kane') built on May 27 2012 16:44:04
Библиотека кодирования : libebml v1.2.3 + libmatroska v1.3.0

Видео
Идентификатор : 1
Формат : AVC
Формат/Информация : Advanced Video Codec
Профиль формата : High@L4.1
Параметр CABAC формата : Да
Параметр ReFrames формата : 4 кадра
Параметр GOP формата : M=3, N=24
Идентификатор кодека : V_MPEG4/ISO/AVC
Продолжительность : 1 ч. 36 м.
Вид битрейта : Переменный
Битрейт : 23,6 Мбит/сек
Максимальный битрейт : 32,0 Мбит/сек
Ширина : 1920 пикселей
Высота : 1080 пикселей
Соотношение сторон : 16:9
Режим частоты кадров : Постоянный
Частота кадров : 24,000 кадра/сек
Стандарт вещания : NTSC
Цветовое пространство : YUV
Субдискретизация насыщенности : 4:2:0
Битовая глубина : 8 бит
Тип развёртки : Прогрессивная
Бит/(Пиксели*Кадры) : 0.474
Размер потока : 16,0 Гбайт (92%)
Default : Да
Forced : Нет
Основные цвета : BT.709
Характеристики трансфера : BT.709
Коэффициенты матрицы : BT.709

Аудио
Идентификатор : 2
Формат : DTS
Формат/Информация : Digital Theater Systems
Режим : 16
Параметр Endianness формата : Big
Идентификатор кодека : A_DTS
Продолжительность : 1 ч. 36 м.
Вид битрейта : Постоянный
Битрейт : 1509 Кбит/сек
Каналы : 6 каналов
Расположение каналов : Front: L C R, Side: L R, LFE
Частота : 48,0 КГц
Битовая глубина : 16 бит
Метод сжатия : С потерями
Размер потока : 1,02 Гбайт (6%)
Язык : Russian
Default : Нет
Forced : Нет

Меню
00:00:00.000 : ru:Chapter 1
00:10:58.291 : ru:Chapter 2
00:23:09.250 : ru:Chapter 3
00:36:29.958 : ru:Chapter 4
00:48:11.250 : ru:Chapter 5
01:01:39.458 : ru:Chapter 6
01:13:50.000 : ru:Chapter 7
01:23:49.666 : ru:Chapter 8






Релиз от: Сборка:



   Похожие торренты   Торрент   Размер 
В этой теме нет новых непрочитанных сообщений. Околофутбола (2013) BDRip 1080p от Killbrain and Scarabey | Лицензия

53 | 10

7.87 ГБ

В этой теме нет новых непрочитанных сообщений. РЭД 2 / Red 2 (2013) BDRemux 1080p от ExKinoRay | US-Transfer | Лицензия

25 | 7

30.47 ГБ

В этой теме нет новых непрочитанных сообщений. Олдбой / Oldboy (2013) BDRemux 1080p от ExKinoRay | D | Лицензия

152 | 166

28.58 ГБ

В этой теме нет новых непрочитанных сообщений. Каньоны / The Canyons (2013) BDRemux 1080p от ExKinoRay | Лицензия

0 | 2

17 ГБ

В этой теме нет новых непрочитанных сообщений. Соблазнитель 2 / Kokowaah 2 (2013) BDRemux 1080p от ExKinoRay | D, L2 | Лицензия

11 | 13

30.56 ГБ

В этой теме нет новых непрочитанных сообщений. Армагеддец / The World's End (2013) BDRemux 1080p от ExKinoRay | Лицензия

7 | 2

25.88 ГБ

В этой теме нет новых непрочитанных сообщений. Смурфики 2 / The Smurfs 2 (2013) BDRemux 1080p от ExKinoRay | Лицензия

4 | 2

21.23 ГБ




Вы не можете начинать темы
Вы не можете отвечать на сообщения
Вы не можете редактировать свои сообщения
Вы не можете удалять свои сообщения
Вы не можете добавлять вложения

Перейти:  
Для Мосгорсуда, Роскомнадзора и рекламодателей: mosgorsud-torrent[собачка]yandex.ru
 Вход
ppkBB3cker v.2 © 2008-2014 @ PPK
[ Time : 0.023s | 14 Queries | GZIP : On ]

Торрент трекер RUTOR.IN, Не можете зайти на rutor.org? Какой новый адрес рутор? Какое зеркало рутор? Не работает rutor.org и зеркала? Тогда наш торрент специально для вас. Rutor.in неофициальное зеркало rutor. В случае если у Вас заблокирован rutor или вдруг Вы не можете на него зайти, то Вы без труда сможете скачать бесплатно и без рекламы последние новинки кино, игр, сериалов и прочего у нас, на Rutor.in. Не нужно использовать прокси, чтобы зайти на рутор, достаточно воспользоваться нашим ресурсом. Все новые фильмы, игры, сериалы, книги и музыка за 2013 и 2014 годы через торрент бесплатно. Скачивайте фильмы в хорошем качестве, игры для пк, xbox, playstation без регистрации. У нас вы найдете новые Зарубежные сериалы и Русские сериалы 2013, 2014, 2015 годов. Оставайтесь с нами, качайте любимые фильмы, игры, сериалы, книги и музыку.