img image001 image001 image001 image001 image001 image001 image001 image001 image001 image001 image001 image001 image001 image001 image001

Planets Sun Sun Sun
Статистика раздачи
Автор: PriZraK | Размер: 744.95 МБ | Добавлен: 15 фев 2014
Раздают: 73    Качают: 8
Скачать торрент
Скачать торрент
Описание торрента

СообщениеДобавлено: 15 фев 2014 


#77
Страна: СССР
Производство: Мосфильм

Жанр: боевик
Год выпуска: 1980
Продолжительность: 01:13:12

Перевод: не требуется
Оригинальная аудиодорожка: русский
Cубтитры: нет

Режиссер: Павел Чухрай

В ролях:
Вадим Спиридонов, Олег Ли, Борис Сморчков, Борис Галкин, Светлана Тома, Лариса Удовиченко, Владимир Заманский, Татьяна Кравченко, А. Сун, И. Хуажень, А. Ким (III), У. Лин, Сергей Цигаль, Валентина Березуцкая, Виктор Уральский...

Описание:
Дальний Восток. Военная часть. Будни пограничников наполнены обычными человеческими заботами и радостями. Но привычный ритм жизни часто нарушается, потому что рядом граница и океан, таящий в себе опасность цунами…






Исходник: DVB
Тип релиза: SATRip
Контейнер: AVI

Видео: 688x512 (4:3), 25 fps, XviD ~ 1285 kbps avg, 0.146 bit/pixel
Аудио: 48 kHz, MP3 2.0, 128 kbps

Раздача от:
Общее
Полное имя : Lyudi.v.okeane.1980.SATRip_[New-team]_by_AVP_Studio.avi
Формат : AVI
Формат/Информация : Audio Video Interleave
Размер файла : 745 Мбайт
Продолжительность : 1 ч. 13 м.
Общий поток : 1423 Кбит/сек
Программа кодирования : VirtualDubModRus 1.5.10.2 (build 2542/release)
Библиотека кодирования : VirtualDubMod build 2542/release

Видео
Идентификатор : 0
Формат : MPEG-4 Visual
Профиль формата : Advanced Simple@L5
Параметр BVOP формата : 1
Параметр QPel формата : Нет
Параметр GMC формата : Без точки перехода
Параметр матрицы формата : Выборочная
Идентификатор кодека : XVID
Идентификатор кодека/Подсказка : XviD
Продолжительность : 1 ч. 13 м.
Битрейт : 1285 Кбит/сек
Ширина : 688 пикселей
Высота : 512 пикселей
Соотношение сторон : 4:3
Частота кадров : 25,000 кадров/сек
Цветовое пространство : YUV
Субдискретизация насыщенности : 4:2:0
Битовая глубина : 8 бит
Тип развёртки : Прогрессивная
Метод сжатия : С потерями
Бит/(Пиксели*Кадры) : 0.146
Размер потока : 673 Мбайт (90%)
Библиотека кодирования : XviD 73

Аудио
Идентификатор : 1
Формат : MPEG Audio
Версия формата : Version 1
Профиль формата : Layer 3
Идентификатор кодека : 55
Идентификатор кодека/Подсказка : MP3
Продолжительность : 1 ч. 13 м.
Вид битрейта : Постоянный
Битрейт : 128 Кбит/сек
Каналы : 2 канала
Частота : 48,0 КГц
Метод сжатия : С потерями
Размер потока : 67,0 Мбайт (9%)
Выравнивание : Соединение по промежуткам
Продолжительность промежутка : 40 мс. (1,00 видеокадр)
Время предзагрузки промежутка : 504 мс.
Библиотека кодирования : LAME3.99r
Настройки программы : -m s -V 4 -q 2 -lowpass 17 -b 128





   Похожие торренты   Торрент   Размер 
В этой теме нет новых непрочитанных сообщений. Люди в океане (1980) DVDRip-AVC от New-Team

11 | 4

743.89 МБ

В этой теме нет новых непрочитанных сообщений. Обыкновенные люди / Ordinary People (1980) DVDRip

6 | 2

814.73 МБ

В этой теме нет новых непрочитанных сообщений. Обыкновенные люди / Ordinary People (1980) DVDRip от Киномагия l L1

4 | 2

1.46 ГБ

В этой теме нет новых непрочитанных сообщений. Свет в океане / The Light Between Oceans (2016) BDRip 1080p от New-Team | iTunes

22 | 13

18.21 ГБ

В этой теме нет новых непрочитанных сообщений. Свет в океане / The Light Between Oceans (2016) BDRip 720p от New-Team | iTunes

56 | 10

7.03 ГБ

В этой теме нет новых непрочитанных сообщений. Это не я, это - он! / C'est pas moi, c'est lui (1980) DVDRip от New-Team

3 | 3

1.46 ГБ

В этой теме нет новых непрочитанных сообщений. Это не я, это - он! / C'est pas moi, c'est lui (1980) DVDRip от New-Team

19 | 11

742.65 МБ




Вы не можете начинать темы
Вы не можете отвечать на сообщения
Вы не можете редактировать свои сообщения
Вы не можете удалять свои сообщения
Вы не можете добавлять вложения

Перейти:  
Для Мосгорсуда, Роскомнадзора и рекламодателей: mosgorsud-torrent[собачка]yandex.ru
 Вход
ppkBB3cker v.2 © 2008-2014 @ PPK
[ Time : 0.064s | 14 Queries | GZIP : Off ]

Торрент трекер RUTOR.IN, Не можете зайти на rutor.org? Какой новый адрес рутор? Какое зеркало рутор? Не работает rutor.org и зеркала? Тогда наш торрент специально для вас. Rutor.in неофициальное зеркало rutor. В случае если у Вас заблокирован rutor или вдруг Вы не можете на него зайти, то Вы без труда сможете скачать бесплатно и без рекламы последние новинки кино, игр, сериалов и прочего у нас, на Rutor.in. Не нужно использовать прокси, чтобы зайти на рутор, достаточно воспользоваться нашим ресурсом. Все новые фильмы, игры, сериалы, книги и музыка за 2013 и 2014 годы через торрент бесплатно. Скачивайте фильмы в хорошем качестве, игры для пк, xbox, playstation без регистрации. У нас вы найдете новые Зарубежные сериалы и Русские сериалы 2013, 2014, 2015 годов. Оставайтесь с нами, качайте любимые фильмы, игры, сериалы, книги и музыку.