img image001 image001 image001 image001 image001 image001 image001 image001 image001 image001 image001 image001 image001 image001 image001

Planets Sun Sun Sun
Статистика раздачи
Автор: PriZraK | Размер: 743.89 МБ | Добавлен: 15 фев 2014
Раздают: 11    Качают: 4
Скачать торрент
Скачать торрент
Описание торрента

СообщениеДобавлено: 15 фев 2014 


#77
Страна: СССР
Производство: Мосфильм

Жанр: боевик
Год выпуска: 1980
Продолжительность: 01:13:12

Перевод: не требуется
Оригинальная аудиодорожка: русский
Cубтитры: нет

Режиссер: Павел Чухрай

В ролях:
Вадим Спиридонов, Олег Ли, Борис Сморчков, Борис Галкин, Светлана Тома, Лариса Удовиченко, Владимир Заманский, Татьяна Кравченко, А. Сун, И. Хуажень, А. Ким (III), У. Лин, Сергей Цигаль, Валентина Березуцкая, Виктор Уральский...

Описание:
Дальний Восток. Военная часть. Будни пограничников наполнены обычными человеческими заботами и радостями. Но привычный ритм жизни часто нарушается, потому что рядом граница и океан, таящий в себе опасность цунами…






Исходник: DVB
Тип релиза: SATRip-AVC
Контейнер: MKV

Видео: 696->760x570 (4:3), 25 fps, H264 ~ 1291 kbps avg, 0.130 bit/pixel
Аудио: 48 kHz, Dolby AC3, 2, 0 ch, 128 kbps

Раздача от:
Общее
Полное имя : Lyudi.v.okeane.1980.SATRip-AVC_[New-team]_by_AVP_Studio.mkv
Формат : Matroska
Версия формата : Version 2
Размер файла : 744 Мбайт
Продолжительность : 1 ч. 13 м.
Общий поток : 1420 Кбит/сек
Дата кодирования : UTC 2013-11-16 17:12:43
Программа кодирования : mkvmerge v6.1.0 ('Old Devil') built on Mar 4 2013 09:10:42
Библиотека кодирования : libebml v1.3.0 + libmatroska v1.4.0

Видео
Идентификатор : 1
Формат : AVC
Формат/Информация : Advanced Video Codec
Профиль формата : High@L4.1
Параметр CABAC формата : Да
Параметр ReFrames формата : 6 кадров
Идентификатор кодека : V_MPEG4/ISO/AVC
Продолжительность : 1 ч. 13 м.
Битрейт : 1291 Кбит/сек
Ширина : 696 пикселей
Высота : 570 пикселей
Соотношение сторон : 4:3
Частота кадров : 25,000 кадров/сек
Цветовое пространство : YUV
Субдискретизация насыщенности : 4:2:0
Битовая глубина : 8 бит
Тип развёртки : Прогрессивная
Бит/(Пиксели*Кадры) : 0.130
Размер потока : 662 Мбайт (89%)
Библиотека кодирования : x264 core 138 r2356 a1d3d17
Настройки программы : cabac=1 / ref=6 / deblock=1:-2:-1 / analyse=0x3:0x113 / me=umh / subme=10 / psy=1 / psy_rd=1.00:0.05 / mixed_ref=1 / me_range=32 / chroma_me=1 / trellis=2 / 8x8dct=1 / cqm=0 / deadzone=21,11 / fast_pskip=0 / chroma_qp_offset=-3 / threads=3 / lookahead_threads=1 / sliced_threads=0 / nr=0 / decimate=0 / interlaced=0 / bluray_compat=0 / constrained_intra=0 / bframes=8 / b_pyramid=2 / b_adapt=2 / b_bias=0 / direct=3 / weightb=1 / open_gop=0 / weightp=2 / keyint=250 / keyint_min=25 / scenecut=40 / intra_refresh=0 / rc=2pass / mbtree=0 / bitrate=1291 / ratetol=1.0 / qcomp=0.60 / qpmin=0 / qpmax=69 / qpstep=4 / cplxblur=20.0 / qblur=0.5 / ip_ratio=1.40 / pb_ratio=1.30 / aq=1:1.00
Default : Да
Forced : Нет

Аудио
Идентификатор : 2
Формат : AC-3
Формат/Информация : Audio Coding 3
Расширение режима : CM (complete main)
Идентификатор кодека : A_AC3
Продолжительность : 1 ч. 13 м.
Вид битрейта : Постоянный
Битрейт : 128 Кбит/сек
Каналы : 2 канала
Расположение каналов : Front: L R
Частота : 48,0 КГц
Битовая глубина : 16 бит
Метод сжатия : С потерями
Размер потока : 67,0 Мбайт (9%)
Default : Да
Forced : Нет





   Похожие торренты   Торрент   Размер 
В этой теме нет новых непрочитанных сообщений. Люди в океане (1980) DVDRip от New-Team

71 | 8

744.95 МБ

В этой теме нет новых непрочитанных сообщений. Обыкновенные люди / Ordinary People (1980) DVDRip

6 | 2

814.73 МБ

В этой теме нет новых непрочитанных сообщений. Обыкновенные люди / Ordinary People (1980) DVDRip от Киномагия l L1

4 | 2

1.46 ГБ

В этой теме нет новых непрочитанных сообщений. Это не я, это - он! / C'est pas moi, c'est lui (1980) DVDRip от New-Team

19 | 11

742.65 МБ

В этой теме нет новых непрочитанных сообщений. Это не я, это - он! / C'est pas moi, c'est lui (1980) DVDRip-AVC от New-Team

0 | 2

1.45 ГБ

В этой теме нет новых непрочитанных сообщений. Это не я, это - он! / C'est pas moi, c'est lui (1980) DVDRip от New-Team

3 | 3

1.46 ГБ

В этой теме нет новых непрочитанных сообщений. Люди и звери (1962) DVDRip от New-Team

0 | 0

2.91 ГБ




Вы не можете начинать темы
Вы не можете отвечать на сообщения
Вы не можете редактировать свои сообщения
Вы не можете удалять свои сообщения
Вы не можете добавлять вложения

Перейти:  
Для Мосгорсуда, Роскомнадзора и рекламодателей: mosgorsud-torrent[собачка]yandex.ru
 Вход
ppkBB3cker v.2 © 2008-2014 @ PPK
[ Time : 0.039s | 14 Queries | GZIP : Off ]

Торрент трекер RUTOR.IN, Не можете зайти на rutor.org? Какой новый адрес рутор? Какое зеркало рутор? Не работает rutor.org и зеркала? Тогда наш торрент специально для вас. Rutor.in неофициальное зеркало rutor. В случае если у Вас заблокирован rutor или вдруг Вы не можете на него зайти, то Вы без труда сможете скачать бесплатно и без рекламы последние новинки кино, игр, сериалов и прочего у нас, на Rutor.in. Не нужно использовать прокси, чтобы зайти на рутор, достаточно воспользоваться нашим ресурсом. Все новые фильмы, игры, сериалы, книги и музыка за 2013 и 2014 годы через торрент бесплатно. Скачивайте фильмы в хорошем качестве, игры для пк, xbox, playstation без регистрации. У нас вы найдете новые Зарубежные сериалы и Русские сериалы 2013, 2014, 2015 годов. Оставайтесь с нами, качайте любимые фильмы, игры, сериалы, книги и музыку.