img image001 image001 image001 image001 image001 image001 image001 image001 image001 image001 image001 image001 image001 image001 image001

Planets Sun Sun Sun
Статистика раздачи
Автор: PriZraK | Размер: 745.14 МБ | Добавлен: 15 фев 2014
Раздают: 10    Качают: 19
Скачать торрент
Скачать торрент
Описание торрента

СообщениеДобавлено: 15 фев 2014 


#77
Страна: СССР
Производство: Мосфильм

Жанр: военный
Год выпуска: 1980
Продолжительность: 01:24:25

Перевод: не требуется
Оригинальная аудиодорожка: русский
Cубтитры: нет

Режиссер: Дамир Вятич-Бережных

В ролях:
Анатолий Васильев, Виктор Коршунов, Евгений Леонов-Гладышев, Марина Яковлева, Сергей Проханов, Петр Щербаков, Алексей Эйбоженко, Владимир Пучков, Станислав Станкевич, Паул Буткевич...

Описание:
Зима 1942 года. Из района Великие Луки — Ржев по приказу Гитлера четыре танковые дивизии должны быть переброшены на помощь Паулюсу, армия которого плотно окружена советскими войсками под Сталинградом.
Перед генералом Шубниковым стоит нелегкая задача: внезапным массированным ударом прорвать оборону фашистов, создав видимость крупного наступления, и, таким образом, отвлечь часть группировки фашистов от Сталинградского котла...





Исходник: DVD5 R5
Тип релиза: DVDRip
Контейнер: AVI

Видео: 688x336 (2,048:1), 25 fps, XviD ~ 1096 kbps avg, 0.190 bit/pixel
Аудио: 48 kHz, MP3 2.0, 128 kbps

Раздача от:
Общее
Полное имя : Korpus.generala.Shubnikova.1980.DVDRip-745_[New-team]_by_AVP_Studio.avi
Формат : AVI
Формат/Информация : Audio Video Interleave
Размер файла : 745 Мбайт
Продолжительность : 1 ч. 24 м.
Общий поток : 1234 Кбит/сек
Программа кодирования : VirtualDubModRus 1.5.10.2 (build 2542/release)
Библиотека кодирования : VirtualDubMod build 2542/release

Видео
Идентификатор : 0
Формат : MPEG-4 Visual
Профиль формата : Advanced Simple@L5
Параметр BVOP формата : 1
Параметр QPel формата : Нет
Параметр GMC формата : Без точки перехода
Параметр матрицы формата : Выборочная
Идентификатор кодека : XVID
Идентификатор кодека/Подсказка : XviD
Продолжительность : 1 ч. 24 м.
Битрейт : 1096 Кбит/сек
Ширина : 688 пикселей
Высота : 336 пикселей
Соотношение сторон : 2,048
Частота кадров : 25,000 кадров/сек
Цветовое пространство : YUV
Субдискретизация насыщенности : 4:2:0
Битовая глубина : 8 бит
Тип развёртки : Прогрессивная
Метод сжатия : С потерями
Бит/(Пиксели*Кадры) : 0.190
Размер потока : 662 Мбайт (89%)
Библиотека кодирования : XviD 73

Аудио
Идентификатор : 1
Формат : MPEG Audio
Версия формата : Version 1
Профиль формата : Layer 3
Идентификатор кодека : 55
Идентификатор кодека/Подсказка : MP3
Продолжительность : 1 ч. 24 м.
Вид битрейта : Постоянный
Битрейт : 128 Кбит/сек
Каналы : 2 канала
Частота : 48,0 КГц
Метод сжатия : С потерями
Размер потока : 77,3 Мбайт (10%)
Выравнивание : Соединение по промежуткам
Продолжительность промежутка : 40 мс. (1,00 видеокадр)
Время предзагрузки промежутка : 504 мс.
Библиотека кодирования : LAME3.99r
Настройки программы : -m s -V 4 -q 2 -lowpass 17 -b 128



Фильм снят о действиях 25-го танкового корпуса генерала Павлова.
В фильме показаны танки Т-34-85, которые выпускались с 1944 года.




   Похожие торренты   Торрент   Размер 
В этой теме нет новых непрочитанных сообщений. Корпус генерала Шубникова (1980) DVDRip-AVC от New-Team

10 | 6

1.46 ГБ

В этой теме нет новых непрочитанных сообщений. Корпус генерала Шубникова (1980) DVDRip от New-Team

52 | 9

1.46 ГБ

В этой теме нет новых непрочитанных сообщений. Корпус генерала Шубникова (1980) DVDRip от Alekxandr48

51 | 7

701.4 МБ

В этой теме нет новых непрочитанных сообщений. Корпус генерала Шубникова (1980) DVDRip-AVC от ExKinoRay

181 | 27

1.14 ГБ

В этой теме нет новых непрочитанных сообщений. Остров ржавого генерала (1988) DVDRip от New-Team

133 | 21

746.08 МБ

В этой теме нет новых непрочитанных сообщений. Остров ржавого генерала (1988) DVDRip-AVC от New-Team

124 | 40

744.33 МБ

В этой теме нет новых непрочитанных сообщений. Спасение генерала Яна / Saving General Yang (2013) HDRip-AVC от BTT-TEAM

17 | 2

1.47 ГБ




Вы не можете начинать темы
Вы не можете отвечать на сообщения
Вы не можете редактировать свои сообщения
Вы не можете удалять свои сообщения
Вы не можете добавлять вложения

Перейти:  
Для Мосгорсуда, Роскомнадзора и рекламодателей: mosgorsud-torrent[собачка]yandex.ru
 Вход
ppkBB3cker v.2 © 2008-2014 @ PPK
[ Time : 0.032s | 15 Queries | GZIP : On ]

Торрент трекер RUTOR.IN, Не можете зайти на rutor.org? Какой новый адрес рутор? Какое зеркало рутор? Не работает rutor.org и зеркала? Тогда наш торрент специально для вас. Rutor.in неофициальное зеркало rutor. В случае если у Вас заблокирован rutor или вдруг Вы не можете на него зайти, то Вы без труда сможете скачать бесплатно и без рекламы последние новинки кино, игр, сериалов и прочего у нас, на Rutor.in. Не нужно использовать прокси, чтобы зайти на рутор, достаточно воспользоваться нашим ресурсом. Все новые фильмы, игры, сериалы, книги и музыка за 2013 и 2014 годы через торрент бесплатно. Скачивайте фильмы в хорошем качестве, игры для пк, xbox, playstation без регистрации. У нас вы найдете новые Зарубежные сериалы и Русские сериалы 2013, 2014, 2015 годов. Оставайтесь с нами, качайте любимые фильмы, игры, сериалы, книги и музыку.