img image001 image001 image001 image001 image001 image001 image001 image001 image001 image001 image001 image001 image001 image001 image001

Planets Sun Sun Sun
Статистика раздачи
Автор: PriZraK | Размер: 2.33 ГБ | Добавлен: 15 фев 2014
Раздают: 431    Качают: 19
Скачать торрент
Скачать торрент
Описание торрента

СообщениеДобавлено: 15 фев 2014 




Информация о фильме
Оригинальное название: Околофутбола
Год выпуска: 2013
Жанр: Драма, криминал
Режиссер: Антон Борматов
В ролях: Александр Ратников, Павел Ерлыков, Григорий Иванец, Иван Фоминов, Дарья Мингазетдинова, Владимир Царулков, Юлия Маньковская

Описание: Фильм о самой закрытой части футбольных болельщиков — околофутбольных хулиганах. Они — самые агрессивные и жестокие представители мира футбольных фанатов. Они — элита околофутбола. Кем бы они ни были в обычной жизни — студентами или банкирами, музыкантами или автомеханиками, на самом деле все они — одна «фирма». Попасть в «фирму» очень сложно, но если ты в ней оказался — это на всю жизнь. И обратного пути нет.


Страна: Россия
Студия: Фонд кино, Front Line Studio, Кинокомпания CTB
Продолжительность: 01:36:49

Файл
Качество: BDRip (AVC)
Видео: MPEG-4 AVC, 3000 Кбит/с, 1024x576, 24.000 кадр/с
Аудио: Русский (AC3, 6 ch, 448 Кбит/с)

Семпл



x264 [info]: frame I:1184 Avg QP:15.82 size: 79611
x264 [info]: frame P:42556 Avg QP:19.09 size: 27158
x264 [info]: frame B:95690 Avg QP:20.73 size: 9681
**************************************************************
Общее
Уникальный идентификатор : 207422168678357088135281960217102640758 (0x9C0C0E7BF1B8D8D3A1F308EA96EDE676)
Полное имя : D:Mои раздачиOkolofutbola.2013.BDRip.(AVC)-MediaClub.mkv
Формат : Matroska
Версия формата : Version 4 / Version 2
Размер файла : 2,33 Гбайт
Продолжительность : 1 ч. 36 м.
Общий поток : 3447 Кбит/сек
Название фильма : -=MediaClub-kaspr=-
Дата кодирования : UTC 2013-11-17 18:46:48
Программа кодирования : mkvmerge v6.1.0 ('Old Devil') built on Mar 4 2013 09:10:42
Библиотека кодирования : libebml v1.3.0 + libmatroska v1.4.0

Видео
Идентификатор : 1
Формат : AVC
Формат/Информация : Advanced Video Codec
Профиль формата : High@L4.1
Параметр CABAC формата : Да
Параметр ReFrames формата : 9 кадров
Идентификатор кодека : V_MPEG4/ISO/AVC
Продолжительность : 1 ч. 36 м.
Битрейт : 3000 Кбит/сек
Ширина : 1024 пикселя
Высота : 576 пикселей
Соотношение сторон : 16:9
Режим частоты кадров : Постоянный
Частота кадров : 24,000 кадра/сек
Цветовое пространство : YUV
Субдискретизация насыщенности : 4:2:0
Битовая глубина : 8 бит
Тип развёртки : Прогрессивная
Бит/(Пиксели*Кадры) : 0.212
Размер потока : 1,98 Гбайт (85%)
Заголовок : -=MediaClub-kaspr=-
Библиотека кодирования : x264 core 130 r2273 b3065e6
Настройки программы : cabac=1 / ref=9 / deblock=1:-3:-3 / analyse=0x3:0x133 / me=umh / subme=11 / psy=1 / psy_rd=1.00:0.20 / mixed_ref=1 / me_range=48 / chroma_me=1 / trellis=2 / 8x8dct=1 / cqm=0 / deadzone=21,11 / fast_pskip=0 / chroma_qp_offset=-3 / threads=12 / lookahead_threads=3 / sliced_threads=0 / nr=0 / decimate=0 / interlaced=0 / bluray_compat=0 / constrained_intra=0 / bframes=10 / b_pyramid=2 / b_adapt=2 / b_bias=0 / direct=3 / weightb=1 / open_gop=0 / weightp=2 / keyint=240 / keyint_min=24 / scenecut=40 / intra_refresh=0 / rc=2pass / mbtree=0 / bitrate=3000 / ratetol=1.0 / qcomp=0.60 / qpmin=0 / qpmax=69 / qpstep=4 / cplxblur=20.0 / qblur=0.5 / ip_ratio=1.40 / pb_ratio=1.30 / aq=1:1.00
Default : Да
Forced : Да

Аудио
Идентификатор : 2
Формат : AC-3
Формат/Информация : Audio Coding 3
Расширение режима : CM (complete main)
Параметр Endianness формата : Big
Идентификатор кодека : A_AC3
Продолжительность : 1 ч. 36 м.
Вид битрейта : Постоянный
Битрейт : 448 Кбит/сек
Каналы : 6 каналов
Расположение каналов : Front: L C R, Side: L R, LFE
Частота : 48,0 КГц
Битовая глубина : 16 бит
Метод сжатия : С потерями
Размер потока : 310 Мбайт (13%)
Язык : Russian
Default : Да
Forced : Да

Меню
00:00:00.000 : en:(01)00:00:00:000
00:10:58.291 : en:(02)00:10:58:291
00:23:09.250 : en:(03)00:23:09:250
00:36:29.958 : en:(04)00:36:29:958
00:48:11.250 : en:(05)00:48:11:250
01:01:39.458 : en:(06)01:01:39:458
01:13:50.000 : en:(07)01:13:50:000
01:23:49.666 : en:(08)01:23:49:666

Релиз: |



   Похожие торренты   Торрент   Размер 
В этой теме нет новых непрочитанных сообщений. Околофутбола (2013) BDRip-AVC от New-Team | Лицензия

784 | 32

2.19 ГБ

В этой теме нет новых непрочитанных сообщений. Околофутбола (2013) BDRip-AVC от HELLYWOOD | Лицензия

1 | 2

1.81 ГБ

В этой теме нет новых непрочитанных сообщений. Околофутбола (2013) BDRip-AVC от New-Team | Лицензия

293 | 9

744.85 МБ

В этой теме нет новых непрочитанных сообщений. Околофутбола (2013) BDRip-AVC от New-Team | Лицензия

158 | 11

1.45 ГБ

В этой теме нет новых непрочитанных сообщений. Околофутбола (2013) BDRip 720p | Лицензия

48 | 15

4.81 ГБ

В этой теме нет новых непрочитанных сообщений. Околофутбола (2013) BDRip от HQCLUB | Лицензия

50 | 3

1.45 ГБ

В этой теме нет новых непрочитанных сообщений. Околофутбола (2013) BDRip 720p от leonardo 59 & Scarabey | Лицензия

136 | 6

2.9 ГБ




Вы не можете начинать темы
Вы не можете отвечать на сообщения
Вы не можете редактировать свои сообщения
Вы не можете удалять свои сообщения
Вы не можете добавлять вложения

Перейти:  
Для Мосгорсуда, Роскомнадзора и рекламодателей: mosgorsud-torrent[собачка]yandex.ru
 Вход
ppkBB3cker v.2 © 2008-2014 @ PPK
[ Time : 1.628s | 13 Queries | GZIP : Off ]
CGP output time : 0.068s | 5 Queries | GZIP : Off

Торрент трекер RUTOR.IN, Не можете зайти на rutor.org? Какой новый адрес рутор? Какое зеркало рутор? Не работает rutor.org и зеркала? Тогда наш торрент специально для вас. Rutor.in неофициальное зеркало rutor. В случае если у Вас заблокирован rutor или вдруг Вы не можете на него зайти, то Вы без труда сможете скачать бесплатно и без рекламы последние новинки кино, игр, сериалов и прочего у нас, на Rutor.in. Не нужно использовать прокси, чтобы зайти на рутор, достаточно воспользоваться нашим ресурсом. Все новые фильмы, игры, сериалы, книги и музыка за 2013 и 2014 годы через торрент бесплатно. Скачивайте фильмы в хорошем качестве, игры для пк, xbox, playstation без регистрации. У нас вы найдете новые Зарубежные сериалы и Русские сериалы 2013, 2014, 2015 годов. Оставайтесь с нами, качайте любимые фильмы, игры, сериалы, книги и музыку.