img image001 image001 image001 image001 image001 image001 image001 image001 image001 image001 image001 image001 image001 image001 image001

Planets Sun Sun Sun
Статистика раздачи
Автор: PriZraK | Размер: 1.46 ГБ | Добавлен: 15 фев 2014
Раздают: 309    Качают: 14
Скачать торрент
Скачать торрент
Описание торрента

СообщениеДобавлено: 15 фев 2014 


#77
Страна: СССР
Производство: Студия Довженко

Жанр: военный
Год выпуска: 1980
Продолжительность: 01:13:50

Перевод: не требуется
Оригинальная аудиодорожка: русский
Cубтитры: нет

Режиссер: Юрий Ляшенко

В ролях:
Г.Юшко, М.Голубович, А.Рудаков, И.Ливанов, А.Барчук, Б.Юрченко, В.Пащенко, А.Горячев, А.Васильев, Ю.Мацарев, Х.Мандри, Р.Коткас, А.Лицитис...

Описание:
История одной боевой операции времен Второй мировой войны. На трофейном «Мерседесе» несколько смельчаков совершают дерзкий рейд в тыл противника. Их путь идет по дорогам, патрулируемым фашистами...





Исходник: DVD5 R5
Тип релиза: DVDRip
Контейнер: AVI

Видео: 720x352 (2,045:1), 25 fps, XviD ~ 2431 kbps avg, 0.384 bit/pixel
Аудио: 48 kHz, Dolby AC3 5.1, 384 kbps

Раздача от:
Общее
Полное имя : Mersedes.uhodit.ot.pogoni.1980.DVDRip_[New-team]_by_AVP_Studio.avi
Формат : AVI
Формат/Информация : Audio Video Interleave
Размер файла : 1,46 Гбайт
Продолжительность : 1 ч. 13 м.
Общий поток : 2825 Кбит/сек
Программа кодирования : VirtualDubModRus 1.5.10.2 (build 2542/release)
Библиотека кодирования : VirtualDubMod build 2542/release

Видео
Идентификатор : 0
Формат : MPEG-4 Visual
Профиль формата : Advanced Simple@L5
Параметр BVOP формата : 1
Параметр QPel формата : Нет
Параметр GMC формата : Без точки перехода
Параметр матрицы формата : Выборочная
Идентификатор кодека : XVID
Идентификатор кодека/Подсказка : XviD
Продолжительность : 1 ч. 13 м.
Битрейт : 2431 Кбит/сек
Ширина : 720 пикселей
Высота : 352 пикселя
Соотношение сторон : 2,045
Частота кадров : 25,000 кадров/сек
Цветовое пространство : YUV
Субдискретизация насыщенности : 4:2:0
Битовая глубина : 8 бит
Тип развёртки : Прогрессивная
Метод сжатия : С потерями
Бит/(Пиксели*Кадры) : 0.384
Размер потока : 1,25 Гбайт (86%)
Библиотека кодирования : XviD 73

Аудио
Идентификатор : 1
Формат : AC-3
Формат/Информация : Audio Coding 3
Расширение режима : CM (complete main)
Идентификатор кодека : 2000
Продолжительность : 1 ч. 13 м.
Вид битрейта : Постоянный
Битрейт : 384 Кбит/сек
Каналы : 6 каналов
Расположение каналов : Front: L C R, Side: L R, LFE
Частота : 48,0 КГц
Битовая глубина : 16 бит
Метод сжатия : С потерями
Размер потока : 203 Мбайт (14%)
Выравнивание : Разделение по промежуткам
Продолжительность промежутка : 40 мс. (1,00 видеокадр)
Время предзагрузки промежутка : 500 мс



В качестве немецких машин используются Урал-375 и ГАЗ-66, выпускавшиеся в 1960—1990 годах.
Первые купальники «бикини» появились лишь в 1946 году.
Немцы ездят на мотоциклах марки К-750 и К-650, которые появились, соответственно, в 1958 и 1967 годах.
116-й мотодивизии в вермахте не существовало. Была 116 танковая дивизия, но она воевала только на западном фронте.
Трехосные бронеавтомобили, которых так много в фильме (снимались советские послевоенные БТР-152), в действительности встречались чрезвычайно редко. Во всем вермахте было лишь 10 таких трехосных бронемашин Sd.Kfz. 247 Ausf.A, они не имели штатного вооружения и использовались только в разведподразделениях.



   Похожие торренты   Торрент   Размер 
В этой теме нет новых непрочитанных сообщений. «Мерседес» уходит от погони (1980) DVDRip-AVC от New-Team

1 | 3

745.11 МБ

В этой теме нет новых непрочитанных сообщений. «Мерседес» уходит от погони (1980) DVDRip от New-Team

2 | 4

745.02 МБ

В этой теме нет новых непрочитанных сообщений. Мерседес уходит от погони (1980) DVDRip от Тракториста

2 | 3

1.36 ГБ

В этой теме нет новых непрочитанных сообщений. Мерседес уходит от погони (1980) DVD5

3 | 16

4.37 ГБ

В этой теме нет новых непрочитанных сообщений. Алитет уходит в горы (1949) DVDRip-AVC от New-Team

17 | 6

1.32 ГБ

В этой теме нет новых непрочитанных сообщений. Алитет уходит в горы (1949) DVDRip от New-Team

11 | 3

745.74 МБ

В этой теме нет новых непрочитанных сообщений. Алитет уходит в горы (1949) DVDRip от New-Team

19 | 11

1.46 ГБ




Вы не можете начинать темы
Вы не можете отвечать на сообщения
Вы не можете редактировать свои сообщения
Вы не можете удалять свои сообщения
Вы не можете добавлять вложения

Перейти:  
Для Мосгорсуда, Роскомнадзора и рекламодателей: mosgorsud-torrent[собачка]yandex.ru
 Вход
ppkBB3cker v.2 © 2008-2014 @ PPK
[ Time : 0.046s | 15 Queries | GZIP : On ]

Торрент трекер RUTOR.IN, Не можете зайти на rutor.org? Какой новый адрес рутор? Какое зеркало рутор? Не работает rutor.org и зеркала? Тогда наш торрент специально для вас. Rutor.in неофициальное зеркало rutor. В случае если у Вас заблокирован rutor или вдруг Вы не можете на него зайти, то Вы без труда сможете скачать бесплатно и без рекламы последние новинки кино, игр, сериалов и прочего у нас, на Rutor.in. Не нужно использовать прокси, чтобы зайти на рутор, достаточно воспользоваться нашим ресурсом. Все новые фильмы, игры, сериалы, книги и музыка за 2013 и 2014 годы через торрент бесплатно. Скачивайте фильмы в хорошем качестве, игры для пк, xbox, playstation без регистрации. У нас вы найдете новые Зарубежные сериалы и Русские сериалы 2013, 2014, 2015 годов. Оставайтесь с нами, качайте любимые фильмы, игры, сериалы, книги и музыку.