img image001 image001 image001 image001 image001 image001 image001 image001 image001 image001 image001 image001 image001 image001 image001

Planets Sun Sun Sun
Статистика раздачи
Автор: PriZraK | Размер: 3.11 ГБ | Добавлен: 15 фев 2014
Раздают: 199    Качают: 11
Скачать торрент
Скачать торрент
Описание торрента

СообщениеДобавлено: 15 фев 2014 




Страна: СССР
Производство: Таджикфильм
Жанр: Боевик, криминал
Год выпуска: 1987
Продолжительность: 3 x ~ 01:15:00
Перевод: Дублированный
Режиссер: Юнус Юсупов
В ролях:Сергей Бондарчук, Сайрам Исаева, Данута Столярская, Закир Кадыров, Паул Буткевич, Дмитрий Иосифов, Александр Соловьев, Рустам Уразаев, Юнус Юсупов, Анастасия Георгиевская, Бахром Акрамов, Рано Хамраева, Леонид Трутнев, Владислав Ковальков, Елена Костина, Савринисо Сабзалиева



Описание: Расследование уголовного дела об отравлении охранников аэропорта Душанбе с целью хищения редких ювелирных изделий.

Тип релиза: TVRip
Контейнер: AVI
Видео: 640x480 (1.33:1), 23.976 fps, XviD ~1819 kbps avg, 0.25 bit/pixel
Аудио: 48 kHz, AC3 2.0 ~192.00 kbps avg
Семпл

Общее
Полное имя : D:залитьСлучай в аэропорту1 серия.avi
Формат : AVI
Формат/Информация : Audio Video Interleave
Размер файла : 1,07 Гбайт
Продолжительность : 1 ч. 15 м.
Общий поток : 2021 Кбит/сек
Программа кодирования : VirtualDubMod 1.5.10.3 | www.virtualdub-fr.org || (build 2550/release)
Библиотека кодирования : VirtualDubMod build 2550/release

Видео
Идентификатор : 0
Формат : MPEG-4 Visual
Профиль формата : Advanced Simple@L5
Параметр BVOP формата : 2
Параметр QPel формата : Нет
Параметр GMC формата : Без точки перехода
Параметр матрицы формата : Default (H.263)
Режим смешивания : Сжатый битовый поток
Идентификатор кодека : XVID
Идентификатор кодека/Подсказка : XviD
Продолжительность : 1 ч. 15 м.
Битрейт : 1820 Кбит/сек
Ширина : 640 пикселей
Высота : 480 пикселей
Соотношение сторон : 4:3
Частота кадров : 23,976 кадра/сек
Цветовое пространство : YUV
Субдискретизация насыщенности : 4:2:0
Битовая глубина : 8 бит
Тип развёртки : Прогрессивная
Метод сжатия : С потерями
Бит/(Пиксели*Кадры) : 0.247
Размер потока : 986 Мбайт (90%)
Библиотека кодирования : XviD 1.2.1 (UTC 2008-12-04)

Аудио
Идентификатор : 1
Формат : AC-3
Формат/Информация : Audio Coding 3
Расширение режима : CM (complete main)
Параметр Endianness формата : Big
Идентификатор кодека : 2000
Продолжительность : 1 ч. 15 м.
Вид битрейта : Постоянный
Битрейт : 192 Кбит/сек
Каналы : 2 канала
Расположение каналов : Front: L R
Частота : 48,0 КГц
Битовая глубина : 16 бит
Метод сжатия : С потерями
Размер потока : 104 Мбайт (9%)
Выравнивание : Разделение по промежуткам
Продолжительность промежутка : 42 мс. (1,00 видеокадр)
Время предзагрузки промежутка : 500 мс.





Релиз группа:

Автор рипа:



   Похожие торренты   Торрент   Размер 
В этой теме нет новых непрочитанных сообщений. Встреча в аэропорту / Kuchh Meetha Ho Jaye (2005) DVDRip от Files-x

2 | 1

2.05 ГБ

В этой теме нет новых непрочитанных сообщений. Сова (1987) TVRip

2 | 2

135.05 МБ

В этой теме нет новых непрочитанных сообщений. Так победим! (1987) TVRip

1 | 1

2.05 ГБ

В этой теме нет новых непрочитанных сообщений. Топинамбуры (1987) TVRip

3 | 2

1.29 ГБ

В этой теме нет новых непрочитанных сообщений. Рок (1987) TVRip-AVC от старпёра

0 | 2

1008.4 МБ

В этой теме нет новых непрочитанных сообщений. Гобсек (1987) TVRip

31 | 5

1.42 ГБ

В этой теме нет новых непрочитанных сообщений. Друг (1987) TVRip

192 | 27

1.37 ГБ




Вы не можете начинать темы
Вы не можете отвечать на сообщения
Вы не можете редактировать свои сообщения
Вы не можете удалять свои сообщения
Вы не можете добавлять вложения

Перейти:  
Для Мосгорсуда, Роскомнадзора и рекламодателей: mosgorsud-torrent[собачка]yandex.ru
 Вход
ppkBB3cker v.2 © 2008-2014 @ PPK
[ Time : 0.123s | 15 Queries | GZIP : Off ]

cron