img image001 image001 image001 image001 image001 image001 image001 image001 image001 image001 image001 image001 image001 image001 image001

Planets Sun Sun Sun
Статистика раздачи
Автор: PriZraK | Размер: 745.02 МБ | Добавлен: 15 фев 2014
Раздают: 2    Качают: 4
Скачать торрент
Скачать торрент
Описание торрента

СообщениеДобавлено: 15 фев 2014 


#77
Страна: СССР
Производство: Студия Довженко

Жанр: военный
Год выпуска: 1980
Продолжительность: 01:13:50

Перевод: не требуется
Оригинальная аудиодорожка: русский
Cубтитры: нет

Режиссер: Юрий Ляшенко

В ролях:
Анатолий Рудаков, Игорь Ливанов, Борис Юрченко, Арнис Лицитис, Маргарита Кошелева, Виктор Павловский, Владимир Горянский, Сергей Подгорный, Герман Юшко, Михаил Голубович, Анатолий Барчук, Вилорий Пащенко, Алексей Горячев, Людмила Чиншевая, Юрий Мацарев, Хейно Мандри, Рейн Коткас, Александр Федоров, Николай Савицкий, Игорь Безгин...

Описание:
История одной боевой операции времен Второй мировой войны. На трофейном «Мерседесе» несколько смельчаков совершают дерзкий рейд в тыл противника. Их путь идет по дорогам, патрулируемым фашистами...





Исходник: DVD5 R5
Тип релиза: DVDRip
Контейнер: AVI

Видео: 720x352 (2,045:1), 25 fps, XviD ~ 1273 kbps avg, 0.201 bit/pixel
Аудио: 48 kHz, MP3 2.0, 128 kbps

Раздача от:
Общее
Полное имя : Mersedes.uhodit.ot.pogoni.1980.DVDRip-745_[New-team]_by_AVP_Studio.avi
Формат : AVI
Формат/Информация : Audio Video Interleave
Размер файла : 745 Мбайт
Продолжительность : 1 ч. 13 м.
Общий поток : 1411 Кбит/сек
Программа кодирования : VirtualDubModRus 1.5.10.2 (build 2542/release)
Библиотека кодирования : VirtualDubMod build 2542/release

Видео
Идентификатор : 0
Формат : MPEG-4 Visual
Профиль формата : Advanced Simple@L5
Параметр BVOP формата : 1
Параметр QPel формата : Нет
Параметр GMC формата : Без точки перехода
Параметр матрицы формата : Выборочная
Идентификатор кодека : XVID
Идентификатор кодека/Подсказка : XviD
Продолжительность : 1 ч. 13 м.
Битрейт : 1273 Кбит/сек
Ширина : 720 пикселей
Высота : 352 пикселя
Соотношение сторон : 2,045
Частота кадров : 25,000 кадров/сек
Цветовое пространство : YUV
Субдискретизация насыщенности : 4:2:0
Битовая глубина : 8 бит
Тип развёртки : Прогрессивная
Метод сжатия : С потерями
Бит/(Пиксели*Кадры) : 0.201
Размер потока : 672 Мбайт (90%)
Библиотека кодирования : XviD 73

Аудио
Идентификатор : 1
Формат : MPEG Audio
Версия формата : Version 1
Профиль формата : Layer 3
Идентификатор кодека : 55
Идентификатор кодека/Подсказка : MP3
Продолжительность : 1 ч. 13 м.
Вид битрейта : Постоянный
Битрейт : 128 Кбит/сек
Каналы : 2 канала
Частота : 48,0 КГц
Метод сжатия : С потерями
Размер потока : 67,6 Мбайт (9%)
Выравнивание : Соединение по промежуткам
Продолжительность промежутка : 40 мс. (1,00 видеокадр)
Время предзагрузки промежутка : 504 мс.
Библиотека кодирования : LAME3.99r
Настройки программы : -m s -V 4 -q 2 -lowpass 17 -b 128



В качестве немецких машин используются Урал-375 и ГАЗ-66, выпускавшиеся в 1960—1990 годах.
Первые купальники «бикини» появились лишь в 1946 году.
Немцы ездят на мотоциклах марки К-750 и К-650, которые появились, соответственно, в 1958 и 1967 годах.
116-й мотодивизии в вермахте не существовало. Была 116 танковая дивизия, но она воевала только на западном фронте.
Трехосные бронеавтомобили, которых так много в фильме (снимались советские послевоенные БТР-152), в действительности встречались чрезвычайно редко. Во всем вермахте было лишь 10 таких трехосных бронемашин Sd.Kfz. 247 Ausf.A, они не имели штатного вооружения и использовались только в разведподразделениях.



   Похожие торренты   Торрент   Размер 
В этой теме нет новых непрочитанных сообщений. «Мерседес» уходит от погони (1980) DVDRip-AVC от New-Team

1 | 3

745.11 МБ

В этой теме нет новых непрочитанных сообщений. «Мерседес» уходит от погони (1980) DVDRip от New-Team

309 | 14

1.46 ГБ

В этой теме нет новых непрочитанных сообщений. Мерседес уходит от погони (1980) DVDRip от Тракториста

2 | 3

1.36 ГБ

В этой теме нет новых непрочитанных сообщений. Мерседес уходит от погони (1980) DVD5

3 | 16

4.37 ГБ

В этой теме нет новых непрочитанных сообщений. Алитет уходит в горы (1949) DVDRip от New-Team

19 | 11

1.46 ГБ

В этой теме нет новых непрочитанных сообщений. Алитет уходит в горы (1949) DVDRip-AVC от New-Team

17 | 6

1.32 ГБ

В этой теме нет новых непрочитанных сообщений. Алитет уходит в горы (1949) DVDRip от New-Team

11 | 3

745.74 МБ




Вы не можете начинать темы
Вы не можете отвечать на сообщения
Вы не можете редактировать свои сообщения
Вы не можете удалять свои сообщения
Вы не можете добавлять вложения

Перейти:  
Для Мосгорсуда, Роскомнадзора и рекламодателей: mosgorsud-torrent[собачка]yandex.ru
 Вход
ppkBB3cker v.2 © 2008-2014 @ PPK
[ Time : 0.024s | 14 Queries | GZIP : Off ]

Торрент трекер RUTOR.IN, Не можете зайти на rutor.org? Какой новый адрес рутор? Какое зеркало рутор? Не работает rutor.org и зеркала? Тогда наш торрент специально для вас. Rutor.in неофициальное зеркало rutor. В случае если у Вас заблокирован rutor или вдруг Вы не можете на него зайти, то Вы без труда сможете скачать бесплатно и без рекламы последние новинки кино, игр, сериалов и прочего у нас, на Rutor.in. Не нужно использовать прокси, чтобы зайти на рутор, достаточно воспользоваться нашим ресурсом. Все новые фильмы, игры, сериалы, книги и музыка за 2013 и 2014 годы через торрент бесплатно. Скачивайте фильмы в хорошем качестве, игры для пк, xbox, playstation без регистрации. У нас вы найдете новые Зарубежные сериалы и Русские сериалы 2013, 2014, 2015 годов. Оставайтесь с нами, качайте любимые фильмы, игры, сериалы, книги и музыку.