img image001 image001 image001 image001 image001 image001 image001 image001 image001 image001 image001 image001 image001 image001 image001

Planets Sun Sun Sun
Статистика раздачи
Автор: PriZraK | Размер: 745.11 МБ | Добавлен: 15 фев 2014
Раздают: 1    Качают: 3
Скачать торрент
Скачать торрент
Описание торрента

СообщениеДобавлено: 15 фев 2014 


#77
Страна: СССР
Производство: Студия Довженко

Жанр: военный
Год выпуска: 1980
Продолжительность: 01:13:50

Перевод: не требуется
Оригинальная аудиодорожка: русский
Cубтитры: нет

Режиссер: Юрий Ляшенко

В ролях:
Анатолий Рудаков, Игорь Ливанов, Борис Юрченко, Арнис Лицитис, Маргарита Кошелева, Виктор Павловский, Владимир Горянский, Сергей Подгорный, Герман Юшко, Михаил Голубович, Анатолий Барчук, Вилорий Пащенко, Алексей Горячев, Людмила Чиншевая, Юрий Мацарев, Хейно Мандри, Рейн Коткас, Александр Федоров, Николай Савицкий, Игорь Безгин...

Описание:
История одной боевой операции времен Второй мировой войны.
Советским разведчикам дано задание отправиться в тыл врага на рискованную боевую операцию, от успешного выполнения которой зависит судьба фронта. Переодевшись в немецкую форму, они садятся на трофейный "Мерседес" и пересекают линию фронта... Их путь идет по дорогам, патрулируемым фашистами, где каждый неверный шаг может привести к роковым последствиям. Эта захватывающая история о подвиге разведчиков в годы Великой Отечественной войны наполнена суровой романтикой и подлинным драматизмом. Фильм заставляет вспомнить, кто и какой ценой победил в этой войне...





Исходник: DVD5 R5
Тип релиза: DVDRip
Контейнер: AVI

Видео: 720->860x420 (16:9), 25 fps, XviD ~ 1025 kbps avg, 0.136 bit/pixel
Аудио: 48 kHz, Dolby AC3 5.1, 384 kbps

Раздача от:
Общее
Полное имя : Mersedes.uhodit.ot.pogoni.1980.DVDRip-AVC_[New-team]_by_AVP_Studio.mkv
Формат : Matroska
Версия формата : Version 2
Размер файла : 745 Мбайт
Продолжительность : 1 ч. 13 м.
Общий поток : 1411 Кбит/сек
Дата кодирования : UTC 2013-11-19 01:34:07
Программа кодирования : mkvmerge v6.1.0 ('Old Devil') built on Mar 4 2013 09:10:42
Библиотека кодирования : libebml v1.3.0 + libmatroska v1.4.0

Видео
Идентификатор : 1
Формат : AVC
Формат/Информация : Advanced Video Codec
Профиль формата : High@L4.1
Параметр CABAC формата : Да
Параметр ReFrames формата : 6 кадров
Идентификатор кодека : V_MPEG4/ISO/AVC
Продолжительность : 1 ч. 13 м.
Битрейт : 1025 Кбит/сек
Ширина : 720 пикселей
Высота : 420 пикселей
Соотношение сторон : 2,045
Частота кадров : 25,000 кадров/сек
Цветовое пространство : YUV
Субдискретизация насыщенности : 4:2:0
Битовая глубина : 8 бит
Тип развёртки : Прогрессивная
Бит/(Пиксели*Кадры) : 0.136
Размер потока : 527 Мбайт (71%)
Библиотека кодирования : x264 core 138 r2356 a1d3d17
Настройки программы : cabac=1 / ref=6 / deblock=1:-2:-1 / analyse=0x3:0x113 / me=umh / subme=10 / psy=1 / psy_rd=1.00:0.05 / mixed_ref=1 / me_range=32 / chroma_me=1 / trellis=2 / 8x8dct=1 / cqm=0 / deadzone=21,11 / fast_pskip=0 / chroma_qp_offset=-3 / threads=3 / lookahead_threads=1 / sliced_threads=0 / nr=0 / decimate=0 / interlaced=0 / bluray_compat=0 / constrained_intra=0 / bframes=8 / b_pyramid=2 / b_adapt=2 / b_bias=0 / direct=3 / weightb=1 / open_gop=0 / weightp=2 / keyint=250 / keyint_min=25 / scenecut=40 / intra_refresh=0 / rc=2pass / mbtree=0 / bitrate=1025 / ratetol=1.0 / qcomp=0.60 / qpmin=0 / qpmax=69 / qpstep=4 / cplxblur=20.0 / qblur=0.5 / ip_ratio=1.40 / pb_ratio=1.30 / aq=1:1.00
Default : Да
Forced : Нет

Аудио
Идентификатор : 2
Формат : AC-3
Формат/Информация : Audio Coding 3
Расширение режима : CM (complete main)
Идентификатор кодека : A_AC3
Продолжительность : 1 ч. 13 м.
Вид битрейта : Постоянный
Битрейт : 384 Кбит/сек
Каналы : 6 каналов
Расположение каналов : Front: L C R, Side: L R, LFE
Частота : 48,0 КГц
Битовая глубина : 16 бит
Метод сжатия : С потерями
Размер потока : 203 Мбайт (27%)
Default : Да
Forced : Нет



В качестве немецких машин используются Урал-375 и ГАЗ-66, выпускавшиеся в 1960—1990 годах.
Первые купальники «бикини» появились лишь в 1946 году.
Немцы ездят на мотоциклах марки К-750 и К-650, которые появились, соответственно, в 1958 и 1967 годах.
116-й мотодивизии в вермахте не существовало. Была 116 танковая дивизия, но она воевала только на западном фронте.
Трехосные бронеавтомобили, которых так много в фильме (снимались советские послевоенные БТР-152), в действительности встречались чрезвычайно редко. Во всем вермахте было лишь 10 таких трехосных бронемашин Sd.Kfz. 247 Ausf.A, они не имели штатного вооружения и использовались только в разведподразделениях.



   Похожие торренты   Торрент   Размер 
В этой теме нет новых непрочитанных сообщений. «Мерседес» уходит от погони (1980) DVDRip от New-Team

309 | 14

1.46 ГБ

В этой теме нет новых непрочитанных сообщений. «Мерседес» уходит от погони (1980) DVDRip от New-Team

2 | 4

745.02 МБ

В этой теме нет новых непрочитанных сообщений. Мерседес уходит от погони (1980) DVDRip от Тракториста

2 | 3

1.36 ГБ

В этой теме нет новых непрочитанных сообщений. Мерседес уходит от погони (1980) DVD5

3 | 16

4.37 ГБ

В этой теме нет новых непрочитанных сообщений. Алитет уходит в горы (1949) DVDRip от New-Team

11 | 3

745.74 МБ

В этой теме нет новых непрочитанных сообщений. Алитет уходит в горы (1949) DVDRip-AVC от New-Team

17 | 6

1.32 ГБ

В этой теме нет новых непрочитанных сообщений. Алитет уходит в горы (1949) DVDRip от New-Team

19 | 11

1.46 ГБ




Вы не можете начинать темы
Вы не можете отвечать на сообщения
Вы не можете редактировать свои сообщения
Вы не можете удалять свои сообщения
Вы не можете добавлять вложения

Перейти:  
Для Мосгорсуда, Роскомнадзора и рекламодателей: mosgorsud-torrent[собачка]yandex.ru
 Вход
ppkBB3cker v.2 © 2008-2014 @ PPK
[ Time : 0.031s | 14 Queries | GZIP : Off ]

Торрент трекер RUTOR.IN, Не можете зайти на rutor.org? Какой новый адрес рутор? Какое зеркало рутор? Не работает rutor.org и зеркала? Тогда наш торрент специально для вас. Rutor.in неофициальное зеркало rutor. В случае если у Вас заблокирован rutor или вдруг Вы не можете на него зайти, то Вы без труда сможете скачать бесплатно и без рекламы последние новинки кино, игр, сериалов и прочего у нас, на Rutor.in. Не нужно использовать прокси, чтобы зайти на рутор, достаточно воспользоваться нашим ресурсом. Все новые фильмы, игры, сериалы, книги и музыка за 2013 и 2014 годы через торрент бесплатно. Скачивайте фильмы в хорошем качестве, игры для пк, xbox, playstation без регистрации. У нас вы найдете новые Зарубежные сериалы и Русские сериалы 2013, 2014, 2015 годов. Оставайтесь с нами, качайте любимые фильмы, игры, сериалы, книги и музыку.