img image001 image001 image001 image001 image001 image001 image001 image001 image001 image001 image001 image001 image001 image001 image001

Planets Sun Sun Sun
Статистика раздачи
Автор: PriZraK | Размер: 7.87 ГБ | Добавлен: 15 фев 2014
Раздают: 53    Качают: 10
Скачать торрент
Скачать торрент
Описание торрента

СообщениеДобавлено: 15 фев 2014 


Околофутбола
«Нас не изменить!»



#77

Страна: Россия
Студия: Кинокомпания CTB, Фонд Кино
Жанр: драма, криминал
Год выпуска: 2013
Продолжительность: 01:36:49

Оригинальная аудиодорожка: русский профессиональный [Лицензия, BD RUS]
Русские субтитры: нет
Режиссер: Антон Борматов
В ролях: Александр Ратников, Иван Фоминов, Григорий Иванец, Павел Ерлыков, Дарья Мингазетдинова, Юлия Маньковская, Евгений Березин, Никита Кукушкин, Сергей Шнырев, Максим Павлов, Владимир Колосов, Валерий Баринов, Елена Симонова, Олег Байкулов, Станислав Лесной, Егор Бакулин, Игорь Гринякин, Сергей Жарков, Тимур Ефременков, Андрей Филиппак, Василий Степанов, Владимир Царулков



Фильм о самой закрытой части футбольных болельщиков — околофутбольных хулиганах. Они — самые агрессивные и жестокие представители мира футбольных фанатов. Они — элита околофутбола. Кем бы они ни были в обычной жизни — студентами или банкирами, музыкантами или автомеханиками, на самом деле все они — одна «фирма». Попасть в «фирму» очень сложно, но если ты в ней оказался — это на всю жизнь. И обратного пути нет.


Тип релиза: BDRip 1080p (исходник: Околофутбола (2013) Blu-ray 1080p AVC LPCM 5.1)
Контейнер: MKV
Видео кодек: x264
Аудио кодек: AC3
Видео: AVC / High@L4.1 / 2 pass / 24,000 fps / 1920x1080p (16:9) / 11,0 Mbps / 0.221
Аудио: AC3 / 5.1 ch / 640 kbps / русский original, BD RUS
Дополнительно: Сохранены оригинальные чаптеры (главы) как на Blu-ray


Раздача от:


АНОНСЫ МОИХ РАЗДАЧ!












x264 [info]: frame I:1212 Avg QP:15.55 size:190980
x264 [info]: frame P:45306 Avg QP:17.97 size: 84969
x264 [info]: frame B:92912 Avg QP:19.77 size: 42039

Общее
Уникальный идентификатор : 239691399847841604094082356191286828381 (0xB452E26A85C64D7084763986FFEC9D5D)
Полное имя : F:Скачка торрентOkolofutbola.2013.BDRip1080p(Killbrain)_[scarabey.org].mkv
Формат : Matroska
Версия формата : Version 2
Размер файла : 7,87 Гбайт
Продолжительность : 1 ч. 36 м.
Общий поток : 11,6 Мбит/сек
Название фильма : Okolofutbola (2013) by Killbrain
Дата кодирования : UTC 2013-11-18 22:42:04
Программа кодирования : mkvmerge v5.8.0 ('No Sleep / Pillow') built on Sep 2 2012 15:37:04
Библиотека кодирования : libebml v1.2.3 + libmatroska v1.3.0

Видео
Идентификатор : 1
Формат : AVC
Формат/Информация : Advanced Video Codec
Профиль формата : High@L4.1
Параметр CABAC формата : Да
Параметр ReFrames формата : 4 кадра
Идентификатор кодека : V_MPEG4/ISO/AVC
Продолжительность : 1 ч. 36 м.
Битрейт : 11,0 Мбит/сек
Ширина : 1920 пикселей
Высота : 1080 пикселей
Соотношение сторон : 16:9
Режим частоты кадров : Постоянный
Частота кадров : 24,000 кадра/сек
Цветовое пространство : YUV
Субдискретизация насыщенности : 4:2:0
Битовая глубина : 8 бит
Тип развёртки : Прогрессивная
Бит/(Пиксели*Кадры) : 0.221
Размер потока : 7,28 Гбайт (93%)
Заголовок : Okolofutbola (2013)
Библиотека кодирования : x264 core 138 r2358 9e941d1
Настройки программы : cabac=1 / ref=4 / deblock=1:-3:-3 / analyse=0x3:0x113 / me=umh / subme=10 / psy=1 / psy_rd=1.00:0.05 / mixed_ref=1 / me_range=32 / chroma_me=1 / trellis=2 / 8x8dct=1 / cqm=0 / deadzone=21,11 / fast_pskip=0 / chroma_qp_offset=-3 / threads=3 / lookahead_threads=1 / sliced_threads=0 / nr=0 / decimate=0 / interlaced=0 / bluray_compat=0 / constrained_intra=0 / bframes=6 / b_pyramid=2 / b_adapt=2 / b_bias=0 / direct=3 / weightb=1 / open_gop=0 / weightp=2 / keyint=240 / keyint_min=24 / scenecut=40 / intra_refresh=0 / rc_lookahead=60 / rc=2pass / mbtree=0 / bitrate=11000 / ratetol=1.0 / qcomp=0.65 / qpmin=0 / qpmax=69 / qpstep=4 / cplxblur=20.0 / qblur=0.5 / vbv_maxrate=40000 / vbv_bufsize=30000 / nal_hrd=none / ip_ratio=1.40 / pb_ratio=1.30 / aq=1:0.90
Язык : Russian
Default : Да
Forced : Нет

Аудио
Идентификатор : 2
Формат : AC-3
Формат/Информация : Audio Coding 3
Расширение режима : CM (complete main)
Параметр Endianness формата : Big
Идентификатор кодека : A_AC3
Продолжительность : 1 ч. 36 м.
Вид битрейта : Постоянный
Битрейт : 640 Кбит/сек
Каналы : 6 каналов
Расположение каналов : Front: L C R, Side: L R, LFE
Частота : 48,0 КГц
Битовая глубина : 16 бит
Метод сжатия : С потерями
Размер потока : 443 Мбайт (5%)
Заголовок : AC3 / 5.1 ch / 640 kbps / Русский original, BD RUS
Язык : Russian
Default : Да
Forced : Нет

Меню
00:00:00.000 : :Chapter 01
00:10:58.291 : :Chapter 02
00:23:09.250 : :Chapter 03
00:36:29.958 : :Chapter 04
00:48:11.250 : :Chapter 05
01:01:39.458 : :Chapter 06
01:13:50.000 : :Chapter 07
01:23:49.666 : :Chapter 08









   Похожие торренты   Торрент   Размер 
В этой теме нет новых непрочитанных сообщений. Три мушкетера (2013) BDRip 1080p от Killbrain and Scarabey | Лицензия

105 | 15

13.06 ГБ

В этой теме нет новых непрочитанных сообщений. Турбо / Turbo (2013) BDRip 1080p от Killbrain and Scarabey | Лицензия

175 | 3

5.44 ГБ

В этой теме нет новых непрочитанных сообщений. Пипец 2 / Kick-Ass 2 (2013) BDRip 1080p от Killbrain and Scarabey | Лицензия

30 | 2

6.39 ГБ

В этой теме нет новых непрочитанных сообщений. Самолеты / Planes (2013) BDRip 1080p от Killbrain and Scarabey | Лицензия

26 | 8

6.57 ГБ

В этой теме нет новых непрочитанных сообщений. Два ствола / 2 Guns (2013) BDRip 1080p от Killbrain and Scarabey | Лицензия

143 | 21

8.49 ГБ

В этой теме нет новых непрочитанных сообщений. Армагеддец / The World's End (2013) BDRip 1080p от Killbrain and Scarabey | Лицензия

14 | 4

8.37 ГБ

В этой теме нет новых непрочитанных сообщений. Смурфики 2 / The Smurfs 2 (2013) BDRip 1080p от Killbrain and Scarabey | Лицензия

5 | 2

8.15 ГБ




Вы не можете начинать темы
Вы не можете отвечать на сообщения
Вы не можете редактировать свои сообщения
Вы не можете удалять свои сообщения
Вы не можете добавлять вложения

Перейти:  
Для Мосгорсуда, Роскомнадзора и рекламодателей: mosgorsud-torrent[собачка]yandex.ru
 Вход
ppkBB3cker v.2 © 2008-2014 @ PPK
[ Time : 4.526s | 14 Queries | GZIP : Off ]

Торрент трекер RUTOR.IN, Не можете зайти на rutor.org? Какой новый адрес рутор? Какое зеркало рутор? Не работает rutor.org и зеркала? Тогда наш торрент специально для вас. Rutor.in неофициальное зеркало rutor. В случае если у Вас заблокирован rutor или вдруг Вы не можете на него зайти, то Вы без труда сможете скачать бесплатно и без рекламы последние новинки кино, игр, сериалов и прочего у нас, на Rutor.in. Не нужно использовать прокси, чтобы зайти на рутор, достаточно воспользоваться нашим ресурсом. Все новые фильмы, игры, сериалы, книги и музыка за 2013 и 2014 годы через торрент бесплатно. Скачивайте фильмы в хорошем качестве, игры для пк, xbox, playstation без регистрации. У нас вы найдете новые Зарубежные сериалы и Русские сериалы 2013, 2014, 2015 годов. Оставайтесь с нами, качайте любимые фильмы, игры, сериалы, книги и музыку.