img image001 image001 image001 image001 image001 image001 image001 image001 image001 image001 image001 image001 image001 image001 image001

Planets Sun Sun Sun
Статистика раздачи
Автор: PriZraK | Размер: 2.99 ГБ | Добавлен: 15 фев 2014
Раздают: 15    Качают: 3
Скачать торрент
Скачать торрент
Описание торрента

СообщениеДобавлено: 15 фев 2014 




Информация о фильме
Название: Я буду рядом
Год выхода: 2012
Жанр: драма
Режиссер: Павел Руминов
В ролях: Мария Шалаева, Роман Зенчук, Мария Сёмкина, Иван Волков, Елена Морозова, Алиса Хазанова, Иван Кокорин, Михаил Крылов, Анастасия Захарова, Тихон Корнев

О фильме:
Инна - успешная молодая женщина с отличным чувством юмора. Она работает менеджером ресторана, по праву заслужив уважение и любовь коллег и начальства. А еще у нее есть самый важный человек на свете – 6-летний сын Митя, которого Инна воспитывает одна. На зависть окружающим, между матерью и ребенком сложились трогательные, добрые, заботливые отношения. Но неожиданно Инну настигает страшная беда – неизлечимая болезнь. Теперь главное для Инны – найти маленькому Мите новых родителей, иначе ребенок останется одиноким сиротой.

Страна: Россия, Украина
Продолжительность: 01:38:59
Перевод: Русский

Файл
Кодек: x264
Качество: WEB-DL 720p
Видео: x264, 1280x706, [16:9], 3858 kbps, 24 fps
Звук: Russian: AC3, 6 ch, 48 kHz, 384 kbps
Общее
Уникальный идентификатор : 204458834016800484833813222252529909414 (0x99D156CE2076D63FBB2F4E2F3060FEA6)
Полное имя : Ya.Budu.Ryadom.2012.720p.WEB-DL.Rus.HDCLUB.mkv
Формат : Matroska
Версия формата : Version 2
Размер файла : 2,99 Гбайт
Продолжительность : 1 ч. 38 м.
Общий поток : 4328 Кбит/сек
Название фильма : Ya Budu Ryadom (2012) - Release for HDCLUB
Дата кодирования : UTC 2013-11-20 20:04:02
Программа кодирования : mkvmerge v3.4.0 ('Rapunzel') built on May 15 2010 09:38:20
Библиотека кодирования : libebml v0.8.0 + libmatroska v0.9.0

Видео
Идентификатор : 1
Формат : AVC
Формат/Информация : Advanced Video Codec
Профиль формата : High@L3.1
Параметр CABAC формата : Нет
Параметр ReFrames формата : 2 кадра
Параметр GOP формата : N=1
Идентификатор кодека : V_MPEG4/ISO/AVC
Продолжительность : 1 ч. 38 м.
Битрейт : 3858 Кбит/сек
Ширина : 1280 пикселей
Высота : 706 пикселей
Соотношение сторон : 16:9
Режим частоты кадров : Постоянный
Частота кадров : 24,000 кадра/сек
Цветовое пространство : YUV
Субдискретизация насыщенности : 4:2:0
Битовая глубина : 8 бит
Тип развёртки : Прогрессивная
Бит/(Пиксели*Кадры) : 0.178
Размер потока : 2,67 Гбайт (89%)
Заголовок : Ya Budu Ryadom (2012) - Release for HDCLUB
Язык : Russian
Default : Да
Forced : Нет
Основные цвета : BT.709
Характеристики трансфера : BT.709
Коэффициенты матрицы : BT.709

Аудио
Идентификатор : 2
Формат : AC-3
Формат/Информация : Audio Coding 3
Расширение режима : CM (complete main)
Параметр Endianness формата : Big
Идентификатор кодека : A_AC3
Продолжительность : 1 ч. 38 м.
Вид битрейта : Постоянный
Битрейт : 384 Кбит/сек
Каналы : 6 каналов
Расположение каналов : Front: L C R, Side: L R, LFE
Частота : 48,0 КГц
Битовая глубина : 16 бит
Метод сжатия : С потерями
Размер потока : 272 Мбайт (9%)
Заголовок : AC3 5.1 @ 384 kbps
Язык : Russian
Default : Да
Forced : Нет

Меню
00:00:00.000 : Глава 1
00:08:06.000 : Глава 2
00:13:04.000 : Глава 3
00:18:03.000 : Глава 4
00:22:58.000 : Глава 5
00:28:09.000 : Глава 6
00:32:05.000 : Глава 7
00:38:04.000 : Глава 8
00:43:02.000 : Глава 9
00:48:04.000 : Глава 10
00:52:02.000 : Глава 11
00:58:03.000 : Глава 12
01:03:02.000 : Глава 13
01:08:04.000 : Глава 14
01:13:30.000 : Глава 15
01:18:31.000 : Глава 16
01:23:31.000 : Глава 17
01:28:35.000 : Глава 18
01:34:00.000 : Глава 19



Релиз от: by sergey_n



   Похожие торренты   Торрент   Размер 
В этой теме нет новых непрочитанных сообщений. Я буду рядом (2012) DVDRip

3 | 1

745.04 МБ

В этой теме нет новых непрочитанных сообщений. Я буду рядом (2012) DVDRip

77 | 3

1.46 ГБ

В этой теме нет новых непрочитанных сообщений. Я буду рядом (2012) WEB-DLRip от Scarabey

9 | 3

745.77 МБ

В этой теме нет новых непрочитанных сообщений. Я буду рядом (2012) WEB-DLRip от Scarabey

31 | 5

1.45 ГБ

В этой теме нет новых непрочитанных сообщений. Я буду рядом (2012) DVD5 | Лицензия

2 | 2

4.04 ГБ

В этой теме нет новых непрочитанных сообщений. Я буду рядом (2013) HDTVRip 720p от MediaClub

127 | 10

2.43 ГБ

В этой теме нет новых непрочитанных сообщений. За гранью: Я буду рядом / Gekijouban Kyoukai no Kanata: I'll Be Here [2 фильма из 2] (2015) BDRip 720p | Sub

38 | 18

3.09 ГБ




Вы не можете начинать темы
Вы не можете отвечать на сообщения
Вы не можете редактировать свои сообщения
Вы не можете удалять свои сообщения
Вы не можете добавлять вложения

Перейти:  
Для Мосгорсуда, Роскомнадзора и рекламодателей: mosgorsud-torrent[собачка]yandex.ru
 Вход
ppkBB3cker v.2 © 2008-2014 @ PPK
[ Time : 0.544s | 15 Queries | GZIP : Off ]

Торрент трекер RUTOR.IN, Не можете зайти на rutor.org? Какой новый адрес рутор? Какое зеркало рутор? Не работает rutor.org и зеркала? Тогда наш торрент специально для вас. Rutor.in неофициальное зеркало rutor. В случае если у Вас заблокирован rutor или вдруг Вы не можете на него зайти, то Вы без труда сможете скачать бесплатно и без рекламы последние новинки кино, игр, сериалов и прочего у нас, на Rutor.in. Не нужно использовать прокси, чтобы зайти на рутор, достаточно воспользоваться нашим ресурсом. Все новые фильмы, игры, сериалы, книги и музыка за 2013 и 2014 годы через торрент бесплатно. Скачивайте фильмы в хорошем качестве, игры для пк, xbox, playstation без регистрации. У нас вы найдете новые Зарубежные сериалы и Русские сериалы 2013, 2014, 2015 годов. Оставайтесь с нами, качайте любимые фильмы, игры, сериалы, книги и музыку.