img image001 image001 image001 image001 image001 image001 image001 image001 image001 image001 image001 image001 image001 image001 image001

Planets Sun Sun Sun
Статистика раздачи
Автор: PriZraK | Размер: 2.05 ГБ | Добавлен: 15 фев 2014
Раздают: 196    Качают: 11
Скачать торрент
Скачать торрент
Описание торрента

СообщениеДобавлено: 15 фев 2014 


Джентльмены, удачи! / Dzhentlmeny, udachi! (2012) BDRip-AVC
Релиз от HQ-ViDEO



Жанр: Комедия, Криминал
Год выхода: 2012

Режиссер: Александр Баранов, Дмитрий Киселёв

В ролях: Сергей Безруков /Sergey Bezrukov/, Марина Петренко, Гоша Куценко /Gosha Kutsenko/, Дато Бахтадзе /Dato Bakhtadze/, Кирилл Жандаров, Антон Богданов, Валентин Смирнитский, Иван Ивашкин, Ольга Медынич, Толепберген Байсакалов /Tolepbergen Baisakalov/, ...

Описание: Молодой аниматор детского центра Леша Трешкин — инфантильный и жизнерадостный «хипстер» — оказывается двойником опаснейшего вора и убийцы Смайлика (так его прозвали за привычку улыбаться перед тем, как убить). Смайлик похищает из музея Санкт-Петербурга национальный символ Казахстана — Доспех Золотого Воина. Молодая красивая лейтенант полиции Ирина Славина ловит Трешкина, и «современными» полицейскими методами заставляет его помочь следствию. Выбора нет, иначе Трешкин сядет как настоящий преступник.
Так Трешкин оказывается в Египте, где сидят двое подельников Смайлика — молодой воришка-оптимист Муха и матёрый мрачный Шатун. Начинается безумная череда приключений, — побег под прикрытием песчаной бури, гонки на грузовиках, переодевание в паранджи. Пытаясь выкрутиться из создавшейся ситуации, Трешкин неожиданно понимает, что из безответственного слабака превращается в человека, от которого зависит свобода и жизнь других. Но когда реальный Смайлик выходит на сцену, Трешкину придется решиться на настоящий подвиг, чтобы в этот новый год спасти и себя, и Славину, и своих новых друзей. А главное — найти любовь.


Релиз:

Автор рипа: AngelOfTrue

Продолжительность: 01:39:55

Перевод: Оригинал

Субтитры: Нет

Информация о файле:
Качество: BDRip-AVC (Исходник: Джентльмены, удачи! (2012) Blu-ray 1080p AVC TrueHD 7.1)
Формат: MKV
Видео: MPEG-4 AVC, x264, 960 x 408; 24.000 fps; 2490 kbps; 0.265 bit/pixel
Аудио: 48 kHz, AC3 Dolby Digital, 3/2 (L,C,R,l,r) + LFE ch, ~448.00 kbps avg


avs [info]: 960x408p 1:1 @ 10000000/416667 fps (cfr)
x264 [warning]: --psnr used with psy on: results will be invalid!
x264 [warning]: --tune psnr should be used if attempting to benchmark psnr!
x264 [info]: using SAR=1/1
x264 [info]: using cpu capabilities: MMX2 SSE2Fast SSSE3 SSE4.2 AVX AVX2 FMA3 LZCNT BMI1 BMI2
x264 [info]: profile High, level 3.1

x264 [info]: frame I:1231 Avg QP:15.85 size: 60807 PSNR Mean Y:47.77 U:50.91 V:51.19 Avg:48.53 Global:47.71
x264 [info]: frame P:33453 Avg QP:17.98 size: 24726 PSNR Mean Y:46.08 U:49.93 V:50.22 Avg:46.89 Global:45.95
x264 [info]: frame B:109212 Avg QP:19.60 size: 8829 PSNR Mean Y:45.37 U:49.01 V:49.40 Avg:46.16 Global:45.14
x264 [info]: consecutive B-frames: 2.5% 2.5% 9.1% 31.8% 20.1% 27.8% 3.2% 1.3% 0.7% 0.3% 0.2% 0.6%
x264 [info]: mb I I16..4: 7.8% 59.0% 33.2%
x264 [info]: mb P I16..4: 2.1% 18.4% 3.5% P16..4: 25.8% 29.8% 12.6% 2.7% 0.4% skip: 4.8%
x264 [info]: mb B I16..4: 0.4% 2.5% 0.4% B16..8: 29.2% 23.1% 5.0% direct: 8.5% skip:30.8% L0:40.1% L1:39.2% BI:20.7%
x264 [info]: 8x8 transform intra:74.6% inter:54.1%
x264 [info]: direct mvs spatial:98.1% temporal:1.9%
x264 [info]: coded y,uvDC,uvAC intra: 81.3% 84.5% 68.4% inter: 28.8% 34.1% 16.9%
x264 [info]: i16 v,h,dc,p: 26% 16% 14% 45%
x264 [info]: i8 v,h,dc,ddl,ddr,vr,hd,vl,hu: 15% 9% 12% 8% 10% 12% 10% 11% 12%
x264 [info]: i4 v,h,dc,ddl,ddr,vr,hd,vl,hu: 20% 9% 11% 7% 11% 12% 10% 9% 10%
x264 [info]: i8c dc,h,v,p: 41% 24% 20% 14%
x264 [info]: Weighted P-Frames: Y:12.2% UV:8.8%
x264 [info]: ref P L0: 47.4% 9.7% 15.9% 7.9% 5.7% 4.3% 3.4% 2.2% 1.8% 1.5% 0.2% 0.0%
x264 [info]: ref B L0: 75.9% 11.7% 5.1% 2.6% 1.8% 1.3% 1.0% 0.5% 0.2%
x264 [info]: ref B L1: 93.9% 6.1%
x264 [info]: SSIM Mean Y:0.9876830 (19.095db)
x264 [info]: PSNR Mean Y:45.556 U:49.243 V:49.604 Avg:46.351 Global:45.331 kb/s:2490.12

x264 [total]: encoded 143896 frames, 9.86 fps, 2490.12 kb/s



Format : Matroska
Format version : Version 4 / Version 2
File size : 2.05 GiB
Duration : 1h 39mn
Overall bit rate : 2 940 Kbps
Encoded date : UTC 2013-11-30 09:54:20
Writing application : mkvmerge v6.1.0 ('Old Devil') built on Mar 4 2013 09:10:42
Writing library : libebml v1.3.0 + libmatroska v1.4.0

Video
ID : 1
Format : AVC
Format/Info : Advanced Video Codec
Format profile : High@L3.1
Format settings, CABAC : Yes
Format settings, ReFrames : 10 frames
Codec ID : V_MPEG4/ISO/AVC
Duration : 1h 39mn
Bit rate : 2 490 Kbps
Width : 960 pixels
Height : 408 pixels
Display aspect ratio : 2.35:1
Frame rate : 24.000 fps
Color space : YUV
Chroma subsampling : 4:2:0
Bit depth : 8 bits
Scan type : Progressive
Bits/(Pixel*Frame) : 0.265
Stream size : 1.70 GiB (83%)
Title : Dzhentlmeny.Udachi!2012.RUS.BDRip-AVC.AC3.-HQ-ViDEO
Writing library : x264 core 130 r2273 b3065e6
Encoding settings : cabac=1 / ref=10 / deblock=1:-3:-2 / analyse=0x3:0x133 / me=umh / subme=11 / psy=1 / psy_rd=1.00:0.10 / mixed_ref=1 / me_range=32 / chroma_me=1 / trellis=2 / 8x8dct=1 / cqm=0 / deadzone=21,11 / fast_pskip=0 / chroma_qp_offset=-3 / threads=6 / lookahead_threads=1 / sliced_threads=0 / nr=0 / decimate=0 / interlaced=0 / bluray_compat=0 / constrained_intra=0 / bframes=11 / b_pyramid=2 / b_adapt=2 / b_bias=0 / direct=3 / weightb=1 / open_gop=0 / weightp=2 / keyint=250 / keyint_min=23 / scenecut=40 / intra_refresh=0 / rc=2pass / mbtree=0 / bitrate=2490 / ratetol=1.0 / qcomp=0.65 / qpmin=10 / qpmax=51 / qpstep=4 / cplxblur=20.0 / qblur=0.5 / ip_ratio=1.35 / pb_ratio=1.25 / aq=2:1.00
Language : Russian
Default : Yes
Forced : No

Audio
ID : 2
Format : AC-3
Format/Info : Audio Coding 3
Mode extension : CM (complete main)
Codec ID : A_AC3
Duration : 1h 39mn
Bit rate mode : Constant
Bit rate : 448 Kbps
Channel(s) : 6 channels
Channel positions : Front: L C R, Side: L R, LFE
Sampling rate : 48.0 KHz
Bit depth : 16 bits
Compression mode : Lossy
Stream size : 320 MiB (15%)
Title : AC3 Dolby Digital / 48 KHz / 448 kbps / 3/2 (L,C,R,l,r) + LFE ch
Language : Russian
Default : Yes
Forced : Yes

Скриншоты для оценки качества:




ПРИЯТНОГО ПРОСМОТРА!



   Похожие торренты   Торрент   Размер 
В этой теме нет новых непрочитанных сообщений. Джентльмены, удачи! (2012) BDRip от HQ-ViDEO

223 | 7

1.46 ГБ

В этой теме нет новых непрочитанных сообщений. Джентльмены удачи (1971) BDRip-AVC от HQ-ViDEO

206 | 16

2.05 ГБ

В этой теме нет новых непрочитанных сообщений. Джентльмены удачи (1971) BDRip от HQ-ViDEO

67 | 15

1.45 ГБ

В этой теме нет новых непрочитанных сообщений. Джентльмены удачи (1971) BDRip 720p от HQ-ViDEO

38 | 6

4.37 ГБ

В этой теме нет новых непрочитанных сообщений. Джентльмены, удачи! (2012) BDRip-AVC | iPad

21 | 4

1.98 ГБ

В этой теме нет новых непрочитанных сообщений. Джентльмены, Удачи! (2012) BDRip | Лицензия

17 | 3

1.46 ГБ

В этой теме нет новых непрочитанных сообщений. Джентльмены, удачи! (2012) BDRip 720p

6 | 5

3.4 ГБ




Вы не можете начинать темы
Вы не можете отвечать на сообщения
Вы не можете редактировать свои сообщения
Вы не можете удалять свои сообщения
Вы не можете добавлять вложения

Перейти:  
Для Мосгорсуда, Роскомнадзора и рекламодателей: mosgorsud-torrent[собачка]yandex.ru
 Вход
ppkBB3cker v.2 © 2008-2014 @ PPK
[ Time : 0.188s | 13 Queries | GZIP : Off ]
CGP output time : 0.018s | 5 Queries | GZIP : Off

Торрент трекер RUTOR.IN, Не можете зайти на rutor.org? Какой новый адрес рутор? Какое зеркало рутор? Не работает rutor.org и зеркала? Тогда наш торрент специально для вас. Rutor.in неофициальное зеркало rutor. В случае если у Вас заблокирован rutor или вдруг Вы не можете на него зайти, то Вы без труда сможете скачать бесплатно и без рекламы последние новинки кино, игр, сериалов и прочего у нас, на Rutor.in. Не нужно использовать прокси, чтобы зайти на рутор, достаточно воспользоваться нашим ресурсом. Все новые фильмы, игры, сериалы, книги и музыка за 2013 и 2014 годы через торрент бесплатно. Скачивайте фильмы в хорошем качестве, игры для пк, xbox, playstation без регистрации. У нас вы найдете новые Зарубежные сериалы и Русские сериалы 2013, 2014, 2015 годов. Оставайтесь с нами, качайте любимые фильмы, игры, сериалы, книги и музыку.