img image001 image001 image001 image001 image001 image001 image001 image001 image001 image001 image001 image001 image001 image001 image001

Planets Sun Sun Sun
Статистика раздачи
Автор: PriZraK | Размер: 744.33 МБ | Добавлен: 15 фев 2014
Раздают: 5    Качают: 6
Скачать торрент
Скачать торрент
Описание торрента

СообщениеДобавлено: 15 фев 2014 


#77
Страна: СССР
Производство: Киностудия им. М. Горького

Жанр: криминал
Год выпуска: 1980
Продолжительность: 01:23:12

Перевод: не требуется
Оригинальная аудиодорожка: русский
Cубтитры: нет

Режиссер: Борис Григорьев

В ролях: Георгий Юматов, Василий Лановой, Евгений Герасимов, Людмила Нильская, Михаил Жигалов, Александр Никифоров, Николай Еременко, Григорий Лямпе, Саша Егоров, Юрий Волков, Николай Крюков, Герман Качин, Вацлав Дворжецкий...

Описание:
Сотрудники Московского уголовного розыска — полковник Алексей Павлович Садчиков, майор Владислав Николаевич Костенко и старший лейтенант Валентин Росляков расследуют дерзкие разбойные нападения, совершаемые группой преступников в тёмных очках. С помощью подростка Лёньки, который случайно познакомился с бандитами и оказался вовлечён в неудавшееся ограбление сберкассы, были задержаны преступники по кличкам «Чита» и «Сударь», но главарь банды — Прохор — остался на свободе. Расследование приводит сотрудников уголовного розыска в подмосковную деревню, где проживает некий, казалось бы, тихий старичок. Этим старичком и оказался Прохор, главарь банды. И он оказывается совсем не тихим. Когда Костенко с Росляковым к нему постучались, он прикрывается внучкой хозяйки дома, а затем начинает отстреливаться. В перестрелке преступник наносит тяжёлое ранение молодому сотруднику уголовного розыска старшему лейтенанту Валентину Рослякову, но врачам удаётся спасти его. Сам Прохор пытается сбежать, но майор Костенко настигает бандита, и расплата за совершённые преступления становится неизбежной…





Исходник: DVD5 R5
Тип релиза: DVDRip-AVC
Контейнер: MKV

Видео: 704->744x364 (2,045:1), 25 fps, H264 ~ 865 kbps avg, 0.135 bit/pixel
Аудио: 48 kHz, Dolby AC3 5.1, 384 kbps

Раздача от:
Общее
Полное имя : Petrovka38.1980.DVDRip-AVC_[New-team]_by_AVP_Studio.mkv
Формат : Matroska
Версия формата : Version 2
Размер файла : 744 Мбайт
Продолжительность : 1 ч. 23 м.
Общий поток : 1251 Кбит/сек
Дата кодирования : UTC 2013-12-02 15:21:05
Программа кодирования : mkvmerge v6.1.0 ('Old Devil') built on Mar 4 2013 09:10:42
Библиотека кодирования : libebml v1.3.0 + libmatroska v1.4.0

Видео
Идентификатор : 1
Формат : AVC
Формат/Информация : Advanced Video Codec
Профиль формата : High@L4.1
Параметр CABAC формата : Да
Параметр ReFrames формата : 6 кадров
Идентификатор кодека : V_MPEG4/ISO/AVC
Продолжительность : 1 ч. 23 м.
Битрейт : 865 Кбит/сек
Ширина : 704 пикселя
Высота : 364 пикселя
Соотношение сторон : 2,058
Соотношение сторон в оригинале : 2,057
Частота кадров : 25,000 кадров/сек
Цветовое пространство : YUV
Субдискретизация насыщенности : 4:2:0
Битовая глубина : 8 бит
Тип развёртки : Прогрессивная
Бит/(Пиксели*Кадры) : 0.135
Размер потока : 501 Мбайт (67%)
Библиотека кодирования : x264 core 138 r2356 a1d3d17
Настройки программы : cabac=1 / ref=6 / deblock=1:-2:-1 / analyse=0x3:0x113 / me=umh / subme=10 / psy=1 / psy_rd=1.00:0.05 / mixed_ref=1 / me_range=32 / chroma_me=1 / trellis=2 / 8x8dct=1 / cqm=0 / deadzone=21,11 / fast_pskip=0 / chroma_qp_offset=-3 / threads=3 / lookahead_threads=1 / sliced_threads=0 / nr=0 / decimate=0 / interlaced=0 / bluray_compat=0 / constrained_intra=0 / bframes=8 / b_pyramid=2 / b_adapt=2 / b_bias=0 / direct=3 / weightb=1 / open_gop=0 / weightp=2 / keyint=250 / keyint_min=25 / scenecut=40 / intra_refresh=0 / rc=2pass / mbtree=0 / bitrate=865 / ratetol=1.0 / qcomp=0.60 / qpmin=0 / qpmax=69 / qpstep=4 / cplxblur=20.0 / qblur=0.5 / ip_ratio=1.40 / pb_ratio=1.30 / aq=1:1.00
Default : Да
Forced : Нет

Аудио
Идентификатор : 2
Формат : AC-3
Формат/Информация : Audio Coding 3
Расширение режима : CM (complete main)
Идентификатор кодека : A_AC3
Продолжительность : 1 ч. 23 м.
Вид битрейта : Постоянный
Битрейт : 384 Кбит/сек
Каналы : 6 каналов
Расположение каналов : Front: L C R, Side: L R, LFE
Частота : 48,0 КГц
Битовая глубина : 16 бит
Метод сжатия : С потерями
Размер потока : 229 Мбайт (31%)
Default : Да
Forced : Нет



В рассказе Юлиана Семёнова среди персонажей присутствует таксист Виктор Ганкин, ставший первой жертвой Прохора. Так же и персонаж футболиста Алика или Александра Пашкова, который перед тем, как Прохор убил того самого Ганкина, встречался с Виктором на улице, разговаривал с ним, а когда они расстались, посмотрел на окно квартиры Ганкина и увидел там старика (это и был Прохор). Уже после убийства Виктора Алик звонил насчёт того самого старика в милицию. В фильме же ни таксиста Ганкина, ни футболиста Пашкова среди персонажей нет. В книге после того, как Костенко встретил в лифте Сударя и они спустились, как раз подоспел Росляков и они с Костенко без проблем Сударя задержали. В фильме же Сударь ударил Костенко, убежал, угнал такси, выбросив шофёра, и лишь потом в результате погони Сударя удалось задержать. Отличается от книги и сцена задержания Прохора. В книге Прохор тоже тяжело ранил Рослякова, но последний, тем не менее, успел на него наскочить, сбить с ног, навалиться на него и выбить пистолет. После этого Прохора взяли уже без дальнейших приключений. В фильме же Прохор сумел убежать, продолжая отстреливаться, даже уехал на автобусе, и лишь после продолжительного преследования (сопровождаемого перестрелкой) Костенко его задержал. Кроме того, в книге Прохор прикрывался маленьким сыном сожительницы (Федькой), а в фильме — внучкой. Помимо всего этого, в фильме не упоминается история персонажей Сударя и Прохора. В книге же Сударь — алкоголик и наркоман, сын одного из чекистов, близких к Берия, расстреляных в 1953 году после прихода к власти Хрущёва. Прохор (Аверьян Прохорович) — бывший сотрудник контрразведки власовской РОА, сумевший укрыться от советского возмездия (в фильме сделан намёк на неудавшуюся попытку сумасшествия Прохора в 1945 году).



   Похожие торренты   Торрент   Размер 
В этой теме нет новых непрочитанных сообщений. Петровка, 38 (1980) DVDRip от New-Team

34 | 6

745.06 МБ

В этой теме нет новых непрочитанных сообщений. Петровка, 38 + Огарева, 6 (1980) DVDRip от Generalfilm

169 | 13

2.74 ГБ

В этой теме нет новых непрочитанных сообщений. Петровка, 38 (1980) DVD5

11 | 5

4.16 ГБ

В этой теме нет новых непрочитанных сообщений. Петровка, 38 (1979) DVDRip

7 | 2

1.37 ГБ

В этой теме нет новых непрочитанных сообщений. Это не я, это - он! / C'est pas moi, c'est lui (1980) DVDRip от New-Team

3 | 3

1.46 ГБ

В этой теме нет новых непрочитанных сообщений. Это не я, это - он! / C'est pas moi, c'est lui (1980) DVDRip от New-Team

19 | 11

742.65 МБ

В этой теме нет новых непрочитанных сообщений. Это не я, это - он! / C'est pas moi, c'est lui (1980) DVDRip-AVC от New-Team

0 | 2

1.45 ГБ




Вы не можете начинать темы
Вы не можете отвечать на сообщения
Вы не можете редактировать свои сообщения
Вы не можете удалять свои сообщения
Вы не можете добавлять вложения

Перейти:  
Для Мосгорсуда, Роскомнадзора и рекламодателей: mosgorsud-torrent[собачка]yandex.ru
 Вход
ppkBB3cker v.2 © 2008-2014 @ PPK
[ Time : 0.040s | 15 Queries | GZIP : Off ]

Торрент трекер RUTOR.IN, Не можете зайти на rutor.org? Какой новый адрес рутор? Какое зеркало рутор? Не работает rutor.org и зеркала? Тогда наш торрент специально для вас. Rutor.in неофициальное зеркало rutor. В случае если у Вас заблокирован rutor или вдруг Вы не можете на него зайти, то Вы без труда сможете скачать бесплатно и без рекламы последние новинки кино, игр, сериалов и прочего у нас, на Rutor.in. Не нужно использовать прокси, чтобы зайти на рутор, достаточно воспользоваться нашим ресурсом. Все новые фильмы, игры, сериалы, книги и музыка за 2013 и 2014 годы через торрент бесплатно. Скачивайте фильмы в хорошем качестве, игры для пк, xbox, playstation без регистрации. У нас вы найдете новые Зарубежные сериалы и Русские сериалы 2013, 2014, 2015 годов. Оставайтесь с нами, качайте любимые фильмы, игры, сериалы, книги и музыку.
cron