img image001 image001 image001 image001 image001 image001 image001 image001 image001 image001 image001 image001 image001 image001 image001

Planets Sun Sun Sun
Статистика раздачи
Автор: PriZraK | Размер: 744.96 МБ | Добавлен: 15 фев 2014
Раздают: 39    Качают: 6
Скачать торрент
Скачать торрент
Описание торрента

СообщениеДобавлено: 15 фев 2014 


#77
Страна: СССР
Производство: Киностудия им. М. Горького

Жанр: криминал
Год выпуска: 1980
Продолжительность: 01:23:32

Перевод: не требуется
Оригинальная аудиодорожка: русский
Cубтитры: нет

Режиссер: Борис Григорьев

В ролях: Василий Лановой, Евгений Герасимов, Всеволод Кузнецов, Гия Баридзе, Нодар Мгалоблишвили, Иван Рыжов, Всеволод Ларионов, Ян Янакиев, Георгий Юматов...

Описание:
На Пригорской ювелирной фабрике обнаружены крупные хищения. В Москве совершены два убийства и попытка изнасилования. Казалось бы, что общего между этими преступлениями? Но однажды взаимосвязь проявится, и Костенко срочно вылетит в Сухуми…





Исходник: DVD5 R5
Тип релиза: DVDRip
Контейнер: AVI

Видео: 704x336 (2,095:1), 25 fps, XviD ~ 853 kbps avg, 0.144 bit/pixel
Аудио: 48 kHz, Dolby AC3 5.1, 384 kbps

Раздача от:
Общее
Полное имя : OGAREVA6.1980.DVDRip_[New-team]_by_AVP_Studio.avi
Формат : AVI
Формат/Информация : Audio Video Interleave
Размер файла : 745 Мбайт
Продолжительность : 1 ч. 23 м.
Общий поток : 1247 Кбит/сек
Программа кодирования : VirtualDubModRus 1.5.10.2 (build 2542/release)
Библиотека кодирования : VirtualDubMod build 2542/release

Видео
Идентификатор : 0
Формат : MPEG-4 Visual
Профиль формата : Advanced Simple@L5
Параметр BVOP формата : 1
Параметр QPel формата : Нет
Параметр GMC формата : Без точки перехода
Параметр матрицы формата : Выборочная
Идентификатор кодека : XVID
Идентификатор кодека/Подсказка : XviD
Продолжительность : 1 ч. 23 м.
Битрейт : 853 Кбит/сек
Ширина : 704 пикселя
Высота : 336 пикселей
Соотношение сторон : 2,095
Частота кадров : 25,000 кадров/сек
Цветовое пространство : YUV
Субдискретизация насыщенности : 4:2:0
Битовая глубина : 8 бит
Тип развёртки : Прогрессивная
Метод сжатия : С потерями
Бит/(Пиксели*Кадры) : 0.144
Размер потока : 510 Мбайт (68%)
Библиотека кодирования : XviD 73

Аудио
Идентификатор : 1
Формат : AC-3
Формат/Информация : Audio Coding 3
Расширение режима : CM (complete main)
Идентификатор кодека : 2000
Продолжительность : 1 ч. 23 м.
Вид битрейта : Постоянный
Битрейт : 384 Кбит/сек
Каналы : 6 каналов
Расположение каналов : Front: L C R, Side: L R, LFE
Частота : 48,0 КГц
Битовая глубина : 16 бит
Метод сжатия : С потерями
Размер потока : 229 Мбайт (31%)
Выравнивание : Разделение по промежуткам
Продолжительность промежутка : 40 мс. (1,00 видеокадр)
Время предзагрузки промежутка : 500 мс



В романе фамилия преступника-отравителя — Кешалава, в фильме же его фамилия — Кажаев.



   Похожие торренты   Торрент   Размер 
В этой теме нет новых непрочитанных сообщений. Огарева, 6 (1980) DVDRip-AVC от New-Team

4 | 5

744.31 МБ

В этой теме нет новых непрочитанных сообщений. Петровка, 38 + Огарева, 6 (1980) DVDRip от Generalfilm

169 | 13

2.74 ГБ

В этой теме нет новых непрочитанных сообщений. Огарева, 6 (1980) DVD5

7 | 10

4.18 ГБ

В этой теме нет новых непрочитанных сообщений. Это не я, это - он! / C'est pas moi, c'est lui (1980) DVDRip от New-Team

3 | 3

1.46 ГБ

В этой теме нет новых непрочитанных сообщений. Это не я, это - он! / C'est pas moi, c'est lui (1980) DVDRip от New-Team

19 | 11

742.65 МБ

В этой теме нет новых непрочитанных сообщений. Это не я, это - он! / C'est pas moi, c'est lui (1980) DVDRip-AVC от New-Team

0 | 2

1.45 ГБ

В этой теме нет новых непрочитанных сообщений. Петровка, 38 (1980) DVDRip-AVC от New-Team

5 | 6

744.33 МБ




Вы не можете начинать темы
Вы не можете отвечать на сообщения
Вы не можете редактировать свои сообщения
Вы не можете удалять свои сообщения
Вы не можете добавлять вложения

Перейти:  
Для Мосгорсуда, Роскомнадзора и рекламодателей: mosgorsud-torrent[собачка]yandex.ru
 Вход
ppkBB3cker v.2 © 2008-2014 @ PPK
[ Time : 1.287s | 14 Queries | GZIP : Off ]

Торрент трекер RUTOR.IN, Не можете зайти на rutor.org? Какой новый адрес рутор? Какое зеркало рутор? Не работает rutor.org и зеркала? Тогда наш торрент специально для вас. Rutor.in неофициальное зеркало rutor. В случае если у Вас заблокирован rutor или вдруг Вы не можете на него зайти, то Вы без труда сможете скачать бесплатно и без рекламы последние новинки кино, игр, сериалов и прочего у нас, на Rutor.in. Не нужно использовать прокси, чтобы зайти на рутор, достаточно воспользоваться нашим ресурсом. Все новые фильмы, игры, сериалы, книги и музыка за 2013 и 2014 годы через торрент бесплатно. Скачивайте фильмы в хорошем качестве, игры для пк, xbox, playstation без регистрации. У нас вы найдете новые Зарубежные сериалы и Русские сериалы 2013, 2014, 2015 годов. Оставайтесь с нами, качайте любимые фильмы, игры, сериалы, книги и музыку.