img image001 image001 image001 image001 image001 image001 image001 image001 image001 image001 image001 image001 image001 image001 image001

Planets Sun Sun Sun
Статистика раздачи
Автор: PriZraK | Размер: 4.66 ГБ | Добавлен: 15 фев 2014
Раздают: 9    Качают: 6
Скачать торрент
Скачать торрент
Описание торрента

СообщениеДобавлено: 15 фев 2014 




Информация о фильме
Название: Майор
Год выхода: 2013
Жанр: Драма, криминал
Режиссер: Юрий Быков
В ролях: Денис Шведов, Ирина Низина, Илья Исаев, Юрий Быков, Дмитрий Куличков, Кирилл Полухин, Борис Невзоров

О фильме:
Что, если один день, один неверный шаг изменят всю твою жизнь, твою и твоих близких?.. В день, когда у жены начались роды, майор полиции Сергей Соболев мчался в роддом вне себя от счастья. На скользкой зимней дороге он насмерть сбил мальчика на глазах у несчастной матери. Превышение скорости, неосторожность, пешеходный переход – доказательства его вины очевидны, как очевидно и нежелание молодого отца отправляться за решетку. Соболев решился на сделку с совестью и воспользовался служебным положением, чтобы оправдать себя, тем самым запустив настоящий механизм смерти — череду смертей, остановить которую решился слишком поздно. События, развиваясь по цепочке, многих людей поставили перед чертой, за которой мораль, долг и совесть стоят жизни…

Фильм удостоился сразу нескольких наград Шанхайского кинофестиваля, в том числе и главной — приза за лучший фильм. Также «Майору» достались премии за лучшую режиссуру и за лучшую музыку. Ранее лента участвовала в программе «Неделя критики» Каннского кинофестиваля и представлялась на «Кинотавре-2013»


Страна: Русский
Продолжительность: 01:39:21
Перевод: Русский

Файл
Кодек: x264
Качество: BDRip 720p
Видео: MPEG-4 AVC, 5070 Кбит/с, 1280x534, 24 кадр/с
Звук: DTS, 6 ch, 1510 Кбит/с
Субтитры: английские
Общее
Уникальный идентификатор : 179206212409080869307827803553417965738 (0x86D1DC6F137B80B7AC9C58DA9354B0AA)
Полное имя : MaJor.2013.720p.BluRay.HDCLUB.mkv
Формат : Matroska
Версия формата : Version 2
Размер файла : 4,66 Гбайт
Продолжительность : 1 ч. 39 м.
Общий поток : 6712 Кбит/сек
Название фильма : Release for HDCLUB
Дата кодирования : UTC 2013-12-05 10:55:31
Программа кодирования : mkvmerge v5.8.0 ('No Sleep / Pillow') built on Sep 2 2012 15:37:04
Библиотека кодирования : libebml v1.2.3 + libmatroska v1.3.0

Видео
Идентификатор : 1
Формат : AVC
Формат/Информация : Advanced Video Codec
Профиль формата : High@L4.1
Параметр CABAC формата : Да
Параметр ReFrames формата : 12 кадров
Идентификатор кодека : V_MPEG4/ISO/AVC
Продолжительность : 1 ч. 39 м.
Битрейт : 5070 Кбит/сек
Ширина : 1280 пикселей
Высота : 534 пикселя
Соотношение сторон : 2,40:1
Режим частоты кадров : Постоянный
Частота кадров : 24,000 кадра/сек
Цветовое пространство : YUV
Субдискретизация насыщенности : 4:2:0
Битовая глубина : 8 бит
Тип развёртки : Прогрессивная
Бит/(Пиксели*Кадры) : 0.309
Размер потока : 3,52 Гбайт (76%)
Заголовок : MaJor.2013.720p.BluRay.HDCLUB
Библиотека кодирования : x264 core 140 r2377+40 929f149 tMod [8-bit@all X86_64]
Настройки программы : cabac=1 / ref=12 / deblock=1:-3:-3 / analyse=0x3:0x133 / me=umh / subme=11 / psy=1 / fade_compensate=0.00 / psy_rd=1.00:0.00 / mixed_ref=1 / me_range=32 / chroma_me=1 / trellis=2 / 8x8dct=1 / cqm=0 / deadzone=21,11 / fast_pskip=0 / chroma_qp_offset=-2 / threads=12 / lookahead_threads=2 / sliced_threads=0 / nr=0 / decimate=1 / interlaced=0 / bluray_compat=0 / constrained_intra=0 / fgo=0 / bframes=7 / b_pyramid=2 / b_adapt=2 / b_bias=0 / direct=1 / weightb=1 / open_gop=0 / weightp=2 / keyint=240 / keyint_min=24 / scenecut=40 / intra_refresh=0 / rc_lookahead=60 / rc=crf / mbtree=0 / crf=16.0000 / qcomp=0.60 / qpmin=0:0:0 / qpmax=69:69:69 / qpstep=4 / vbv_maxrate=50000 / vbv_bufsize=62500 / crf_max=0.0 / nal_hrd=none / filler=0 / ip_ratio=1.30 / pb_ratio=1.20 / aq=2:0.80 / aq-sensitivity=10.00 / aq-factor=1.00:1.00:1.00 / aq2=0 / aq3=0
Язык : English
Default : Да
Forced : Нет

Аудио
Идентификатор : 2
Формат : DTS
Формат/Информация : Digital Theater Systems
Режим : 16
Параметр Endianness формата : Big
Идентификатор кодека : A_DTS
Продолжительность : 1 ч. 39 м.
Вид битрейта : Постоянный
Битрейт : 1509 Кбит/сек
Каналы : 6 каналов
Расположение каналов : Front: L C R, Side: L R, LFE
Частота : 48,0 КГц
Битовая глубина : 16 бит
Метод сжатия : С потерями
Размер потока : 1,05 Гбайт (22%)
Заголовок : DTS 5.1 @ 1509 kbps - Original [BD RUS]
Язык : Russian
Default : Да
Forced : Нет

Текст
Идентификатор : 3
Формат : UTF-8
Идентификатор кодека : S_TEXT/UTF8
Идентификатор кодека/Информация : UTF-8 Plain Text
Заголовок : Full
Язык : English
Default : Нет
Forced : Нет

Меню
00:00:00.000 : ru:Chapter 1
00:00:41.000 : ru:Chapter 2
00:08:35.583 : ru:Chapter 3
00:23:31.875 : ru:Chapter 4
00:29:56.750 : ru:Chapter 5
00:44:46.083 : ru:Chapter 6
01:02:40.875 : ru:Chapter 7
01:12:17.666 : ru:Chapter 8
01:17:41.958 : ru:Chapter 9




Релиз от: by Bloodfighter



   Похожие торренты   Торрент   Размер 
В этой теме нет новых непрочитанных сообщений. Майор Пэйн / Major Payne (1995) WEB-DL 720p от HDClub

426 | 10

4.11 ГБ

В этой теме нет новых непрочитанных сообщений. Майор (2013) BDRip 720p от HQ-ViDEO

206 | 70

4.58 ГБ

В этой теме нет новых непрочитанных сообщений. Майор (2013) BDRip 720p от leonardo 59 & Scarabey | Лицензия

253 | 18

2.87 ГБ

В этой теме нет новых непрочитанных сообщений. Майор (2013) WEB-DL 720p

78 | 6

1.79 ГБ

В этой теме нет новых непрочитанных сообщений. Майор полиции [01-11 из 16] (2013) HDTVRip 720p от MediaClub

7 | 11

17.11 ГБ

В этой теме нет новых непрочитанных сообщений. Майор полиции [01-16 из 16] (2013) HDTVRip 720p от MediaClub

26 | 94

24.89 ГБ

В этой теме нет новых непрочитанных сообщений. Майор полиции [01-04 из 16] (2013) HDTVRip 720p от MediaClub

15 | 21

6.22 ГБ




Вы не можете начинать темы
Вы не можете отвечать на сообщения
Вы не можете редактировать свои сообщения
Вы не можете удалять свои сообщения
Вы не можете добавлять вложения

Перейти:  
Для Мосгорсуда, Роскомнадзора и рекламодателей: mosgorsud-torrent[собачка]yandex.ru
 Вход
ppkBB3cker v.2 © 2008-2014 @ PPK
[ Time : 1.378s | 14 Queries | GZIP : Off ]

Торрент трекер RUTOR.IN, Не можете зайти на rutor.org? Какой новый адрес рутор? Какое зеркало рутор? Не работает rutor.org и зеркала? Тогда наш торрент специально для вас. Rutor.in неофициальное зеркало rutor. В случае если у Вас заблокирован rutor или вдруг Вы не можете на него зайти, то Вы без труда сможете скачать бесплатно и без рекламы последние новинки кино, игр, сериалов и прочего у нас, на Rutor.in. Не нужно использовать прокси, чтобы зайти на рутор, достаточно воспользоваться нашим ресурсом. Все новые фильмы, игры, сериалы, книги и музыка за 2013 и 2014 годы через торрент бесплатно. Скачивайте фильмы в хорошем качестве, игры для пк, xbox, playstation без регистрации. У нас вы найдете новые Зарубежные сериалы и Русские сериалы 2013, 2014, 2015 годов. Оставайтесь с нами, качайте любимые фильмы, игры, сериалы, книги и музыку.