img image001 image001 image001 image001 image001 image001 image001 image001 image001 image001 image001 image001 image001 image001 image001

Planets Sun Sun Sun
Статистика раздачи
Автор: PriZraK | Размер: 8.65 ГБ | Добавлен: 15 фев 2014
Раздают: 18    Качают: 7
Скачать торрент
Скачать торрент
Описание торрента

СообщениеДобавлено: 15 фев 2014 




Информация о фильме
Оригинальное название: Майор
Год выпуска: 2013
Жанр: Драма, криминал
Выпущено: Россия, ТПО "Рок"
Режиссер: Юрий Быков
В ролях: Денис Шведов, Ирина Низина, Илья Исаев, Юрий Быков, Дмитрий Куличков, Кирилл Полухин, Борис Невзоров

О фильме: Что, если один день, один неверный шаг изменят всю твою жизнь, твою и твоих близких?.. В день, когда у жены начались роды, майор полиции Сергей Соболев мчался в роддом вне себя от счастья. На скользкой зимней дороге он насмерть сбил мальчика на глазах у несчастной матери. Превышение скорости, неосторожность, пешеходный переход – доказательства его вины очевидны, как очевидно и нежелание молодого отца отправляться за решетку. Соболев решился на сделку с совестью и воспользовался служебным положением, чтобы оправдать себя, тем самым запустив настоящий механизм смерти — череду смертей, остановить которую решился слишком поздно. События, развиваясь по цепочке, многих людей поставили перед чертой, за которой мораль, долг и совесть стоят жизни…

Файл
Качество: BDRip (1080p)
Видео: MPEG-4 AVC, 10.5 Мбит/с, 1920x802
Аудио: Русский (DTS, 6 ch, 1510 Кбит/с), (AC3, 6 ch, 448 Кбит/с)
Размер: 8.65 ГБ
Продолжительность: 01:39:21
Язык: Русский
Субтитры: Английские
Общее
Уникальный идентификатор : 180586241073233324153619565835433960868 (0x87DBA519A7E5DDED98AD8EF4FE4665A4)
Полное имя : D:Major.2013.1080p.ENGsub.CMEGRoup.mkv
Формат : Matroska
Версия формата : Version 2
Размер файла : 8,65 Гбайт
Продолжительность : 1 ч. 39 м.
Общий поток : 12,5 Мбит/сек
Название фильма : CMEGRoup
Дата кодирования : UTC 2013-12-06 11:25:06
Программа кодирования : mkvmerge v6.3.0 ('You can't stop me!') built on Jun 28 2013 20:09:41
Библиотека кодирования : libebml v1.3.0 + libmatroska v1.4.0
Видео
Идентификатор : 1
Формат : AVC
Формат/Информация : Advanced Video Codec
Профиль формата : High@L4.1
Параметр CABAC формата : Да
Параметр ReFrames формата : 4 кадра
Идентификатор кодека : V_MPEG4/ISO/AVC
Продолжительность : 1 ч. 39 м.
Битрейт : 10,5 Мбит/сек
Ширина : 1920 пикселей
Высота : 802 пикселя
Соотношение сторон : 2,40:1
Режим частоты кадров : Постоянный
Частота кадров : 24,000 кадра/сек
Цветовое пространство : YUV
Субдискретизация насыщенности : 4:2:0
Битовая глубина : 8 бит
Тип развёртки : Прогрессивная
Бит/(Пиксели*Кадры) : 0.284
Размер потока : 7,12 Гбайт (82%)
Библиотека кодирования : x264 core 138 r2358 9e941d1
Настройки программы : cabac=1 / ref=4 / deblock=1:-3:-3 / analyse=0x3:0x113 / me=umh / subme=11 / psy=1 / psy_rd=1.00:0.00 / mixed_ref=1 / me_range=32 / chroma_me=1 / trellis=2 / 8x8dct=1 / cqm=0 / deadzone=21,11 / fast_pskip=1 / chroma_qp_offset=-2 / threads=12 / lookahead_threads=1 / sliced_threads=0 / nr=0 / decimate=1 / interlaced=0 / bluray_compat=0 / constrained_intra=0 / bframes=7 / b_pyramid=2 / b_adapt=1 / b_bias=0 / direct=2 / weightb=1 / open_gop=0 / weightp=2 / keyint=240 / keyint_min=24 / scenecut=40 / intra_refresh=0 / rc_lookahead=40 / rc=2pass / mbtree=1 / bitrate=10500 / ratetol=1.0 / qcomp=0.60 / qpmin=10 / qpmax=51 / qpstep=4 / cplxblur=20.0 / qblur=0.5 / vbv_maxrate=62500 / vbv_bufsize=78125 / nal_hrd=none / ip_ratio=1.40 / aq=1:1.00 / zones=138977,143067,q=40
Язык : English
Default : Да
Forced : Нет
Аудио #1
Идентификатор : 2
Формат : DTS
Формат/Информация : Digital Theater Systems
Режим : 16
Параметр Endianness формата : Big
Идентификатор кодека : A_DTS
Продолжительность : 1 ч. 39 м.
Вид битрейта : Постоянный
Битрейт : 1509 Кбит/сек
Каналы : 6 каналов
Расположение каналов : Front: L C R, Side: L R, LFE
Частота : 48,0 КГц
Битовая глубина : 24 бит
Метод сжатия : С потерями
Размер потока : 1,05 Гбайт (12%)
Язык : Russian
Default : Да
Forced : Нет
Аудио #2
Идентификатор : 3
Формат : AC-3
Формат/Информация : Audio Coding 3
Расширение режима : CM (complete main)
Параметр Endianness формата : Big
Идентификатор кодека : A_AC3
Продолжительность : 1 ч. 39 м.
Вид битрейта : Постоянный
Битрейт : 448 Кбит/сек
Каналы : 6 каналов
Расположение каналов : Front: L C R, Side: L R, LFE
Частота : 48,0 КГц
Битовая глубина : 16 бит
Метод сжатия : С потерями
Размер потока : 318 Мбайт (4%)
Язык : Russian
Default : Нет
Forced : Нет
Текст
Идентификатор : 4
Формат : UTF-8
Идентификатор кодека : S_TEXT/UTF8
Идентификатор кодека/Информация : UTF-8 Plain Text
Язык : English
Default : Нет
Forced : Нет
Меню
00:00:00.000 : en:00:00:00.000
00:00:41.000 : en:00:00:41.000
00:08:35.583 : en:00:08:35.583
00:23:31.875 : en:00:23:31.875
00:29:56.750 : en:00:29:56.750
00:44:46.083 : en:00:44:46.083
01:02:40.875 : en:01:02:40.875
01:12:17.667 : en:01:12:17.667
01:17:41.958 : en:01:17:41.958





Релиз от:



   Похожие торренты   Торрент   Размер 
В этой теме нет новых непрочитанных сообщений. Майор / Mayor (2013) BDRip 1080p от Killbrain and Scarabey | Лицензия

26 | 5

5.58 ГБ

В этой теме нет новых непрочитанных сообщений. Майор (2013) BDRip 1080p

312 | 23

5.77 ГБ

В этой теме нет новых непрочитанных сообщений. Майор (2013) BDRip от HQCLUB | Лицензия

1346 | 70

1.45 ГБ

В этой теме нет новых непрочитанных сообщений. Майор (2013) BDRip-AVC от HELLYWOOD | Лицензия

49 | 4

1.46 ГБ

В этой теме нет новых непрочитанных сообщений. Майор (2013) BDRip-AVC от leonardo 59 & Scarabey | Лицензия

61 | 7

711.03 МБ

В этой теме нет новых непрочитанных сообщений. Майор (2013) BDRip-AVC от leonardo 59 & Scarabey | Лицензия

13 | 3

1.28 ГБ

В этой теме нет новых непрочитанных сообщений. Майор (2013) BDRip 720p от leonardo 59 & Scarabey | Лицензия

253 | 18

2.87 ГБ




Вы не можете начинать темы
Вы не можете отвечать на сообщения
Вы не можете редактировать свои сообщения
Вы не можете удалять свои сообщения
Вы не можете добавлять вложения

Перейти:  
Для Мосгорсуда, Роскомнадзора и рекламодателей: mosgorsud-torrent[собачка]yandex.ru
 Вход
ppkBB3cker v.2 © 2008-2014 @ PPK
[ Time : 0.022s | 14 Queries | GZIP : Off ]

Торрент трекер RUTOR.IN, Не можете зайти на rutor.org? Какой новый адрес рутор? Какое зеркало рутор? Не работает rutor.org и зеркала? Тогда наш торрент специально для вас. Rutor.in неофициальное зеркало rutor. В случае если у Вас заблокирован rutor или вдруг Вы не можете на него зайти, то Вы без труда сможете скачать бесплатно и без рекламы последние новинки кино, игр, сериалов и прочего у нас, на Rutor.in. Не нужно использовать прокси, чтобы зайти на рутор, достаточно воспользоваться нашим ресурсом. Все новые фильмы, игры, сериалы, книги и музыка за 2013 и 2014 годы через торрент бесплатно. Скачивайте фильмы в хорошем качестве, игры для пк, xbox, playstation без регистрации. У нас вы найдете новые Зарубежные сериалы и Русские сериалы 2013, 2014, 2015 годов. Оставайтесь с нами, качайте любимые фильмы, игры, сериалы, книги и музыку.