img image001 image001 image001 image001 image001 image001 image001 image001 image001 image001 image001 image001 image001 image001 image001

Planets Sun Sun Sun
Статистика раздачи
Автор: PriZraK | Размер: 1.46 ГБ | Добавлен: 15 фев 2014
Раздают: 810    Качают: 57
Скачать торрент
Скачать торрент
Описание торрента

СообщениеДобавлено: 15 фев 2014 


#77
Год выпуска: 1995
Страна: Россия

Жанр: комедия
Продолжительность: 01:33:02
Субтитры: нет

Режиссер: Александр Рогожкин

В ролях: Вилле Хаапасало, Алексей Булдаков, Виктор Бычков, Семен Стругачев, Сергей Куприянов, Сергей Русскин, Сергей Гусинский, Игорь Сергеев, Игорь Добряков, Юрий Макусинский...

Описание: Молодой финский специалист по охоте, «финик», уговаривает своего русского друга помочь ему поучаствовать в настоящей русской охоте, дабы познакомиться с нравами и привычками русских охотников. До боли знакомые нам бесконечные застолья с последующими приключениями, насыщенными крепким запахом водки, непрестанно удивляют и поражают «финика», но все же, сопоставляя традиции исторического прошлого со своеобразием настоящего, финн не жалеет о потерянном времени…





Исходник: DVD5
Тип релиза: DVDRip
Контейнер: AVI

Видео: 704x432 (1,65:1), 25 fps, XviD ~ 1848 kbps avg, 0.243 bit/pixel
Аудио: 48 kHz, AC3, 6 ch, 384.00 kbps

Раздача от:
Общее
Полное имя : Nacional'nye.osobennostiNacionalnaya.ohota.1995.DVDRip.avi
Формат : AVI
Формат/Информация : Audio Video Interleave
Размер файла : 1,46 Гбайт
Продолжительность : 1 ч. 33 м.
Общий поток : 2241 Кбит/сек
Программа кодирования : VirtualDubMod 1.5.10.3 | www.virtualdub-fr.org || (build 2550/release)
Библиотека кодирования : VirtualDubMod build 2550/release

Видео
Идентификатор : 0
Формат : MPEG-4 Visual
Профиль формата : Advanced Simple@L5
Параметр BVOP формата : 1
Параметр QPel формата : Нет
Параметр GMC формата : Без точки перехода
Параметр матрицы формата : Выборочная
Идентификатор кодека : XVID
Идентификатор кодека/Подсказка : XviD
Продолжительность : 1 ч. 33 м.
Битрейт : 1848 Кбит/сек
Ширина : 704 пикселя
Высота : 432 пикселя
Соотношение сторон : 1,649
Частота кадров : 25,000 кадров/сек
Цветовое пространство : YUV
Субдискретизация насыщенности : 4:2:0
Битовая глубина : 8 бит
Тип развёртки : Прогрессивная
Метод сжатия : С потерями
Бит/(Пиксели*Кадры) : 0.243
Размер потока : 1,20 Гбайт (82%)
Библиотека кодирования : XviD 64

Аудио
Идентификатор : 1
Формат : AC-3
Формат/Информация : Audio Coding 3
Расширение режима : CM (complete main)
Идентификатор кодека : 2000
Продолжительность : 1 ч. 33 м.
Вид битрейта : Постоянный
Битрейт : 384 Кбит/сек
Каналы : 6 каналов
Расположение каналов : Front: L C R, Side: L R, LFE
Частота : 48,0 КГц
Битовая глубина : 16 бит
Метод сжатия : С потерями
Размер потока : 256 Мбайт (17%)
Выравнивание : Разделение по промежуткам
Продолжительность промежутка : 40 мс. (1,00 видеокадр)
Время предзагрузки промежутка : 500 мс





   Похожие торренты   Торрент   Размер 
В этой теме нет новых непрочитанных сообщений. Особенности национальной охоты (1995) DVDRip

423 | 25

1.37 ГБ

В этой теме нет новых непрочитанных сообщений. Особенности национальной охоты (1995) DVDRip от RAMpage CHG

85 | 15

701.56 МБ

В этой теме нет новых непрочитанных сообщений. Особенности национальной охоты (1995) DVDRip-AVC от Youtracker

144 | 9

1.46 ГБ

В этой теме нет новых непрочитанных сообщений. Особенности национальной охоты (1995) DVDRip от Sanjar & NeoJet | КПК

116 | 13

279.51 МБ

В этой теме нет новых непрочитанных сообщений. Особенности национальной охоты (1995) DVD5 от Youtracker

192 | 12

4.37 ГБ

В этой теме нет новых непрочитанных сообщений. Особенности национальной охоты в зимний период (2000) DVDRip

914 | 29

1.37 ГБ

В этой теме нет новых непрочитанных сообщений. Национальные особенности: Коллекция / Особенности национальной... (1995-2007) DVDRip

728 | 112

8.65 ГБ




Вы не можете начинать темы
Вы не можете отвечать на сообщения
Вы не можете редактировать свои сообщения
Вы не можете удалять свои сообщения
Вы не можете добавлять вложения

Перейти:  
Для Мосгорсуда, Роскомнадзора и рекламодателей: mosgorsud-torrent[собачка]yandex.ru
 Вход
ppkBB3cker v.2 © 2008-2014 @ PPK
[ Time : 0.013s | 13 Queries | GZIP : Off ]
CGP output time : 0.026s | 5 Queries | GZIP : Off

Торрент трекер RUTOR.IN, Не можете зайти на rutor.org? Какой новый адрес рутор? Какое зеркало рутор? Не работает rutor.org и зеркала? Тогда наш торрент специально для вас. Rutor.in неофициальное зеркало rutor. В случае если у Вас заблокирован rutor или вдруг Вы не можете на него зайти, то Вы без труда сможете скачать бесплатно и без рекламы последние новинки кино, игр, сериалов и прочего у нас, на Rutor.in. Не нужно использовать прокси, чтобы зайти на рутор, достаточно воспользоваться нашим ресурсом. Все новые фильмы, игры, сериалы, книги и музыка за 2013 и 2014 годы через торрент бесплатно. Скачивайте фильмы в хорошем качестве, игры для пк, xbox, playstation без регистрации. У нас вы найдете новые Зарубежные сериалы и Русские сериалы 2013, 2014, 2015 годов. Оставайтесь с нами, качайте любимые фильмы, игры, сериалы, книги и музыку.