img image001 image001 image001 image001 image001 image001 image001 image001 image001 image001 image001 image001 image001 image001 image001

Planets Sun Sun Sun
Статистика раздачи
Автор: PriZraK | Размер: 1.46 ГБ | Добавлен: 15 фев 2014
Раздают: 12    Качают: 3
Скачать торрент
Скачать торрент
Описание торрента

СообщениеДобавлено: 15 фев 2014 




Информация о фильме
Название: Майор
Год выхода: 2013
Жанр: Драма, криминал
Режиссер: Юрий Быков
В ролях: Денис Шведов, Ирина Низина, Илья Исаев, Юрий Быков, Дмитрий Куличков, Кирилл Полухин, Борис Невзоров

О фильме:
Что, если один день, один неверный шаг изменят всю твою жизнь, твою и твоих близких?.. В день, когда у жены начались роды, майор полиции Сергей Соболев мчался в роддом вне себя от счастья. На скользкой зимней дороге он насмерть сбил мальчика на глазах у несчастной матери. Превышение скорости, неосторожность, пешеходный переход – доказательства его вины очевидны, как очевидно и нежелание молодого отца отправляться за решетку. Соболев решился на сделку с совестью и воспользовался служебным положением, чтобы оправдать себя, тем самым запустив настоящий механизм смерти — череду смертей, остановить которую решился слишком поздно. События, развиваясь по цепочке, многих людей поставили перед чертой, за которой мораль, долг и совесть стоят жизни…

Страна: Россия, ТПО "Рок"
Продолжительность: 01:39:21
Перевод: Оригинал [Лицензия]

Файл
Кодек: x264
Качество: BDRip-AVC
Видео: MPEG-4 AVC, 1716 Кбит/с, 1024x428, 24.000 кадр/с
Звук: AC3, 6 ch, 384 Кбит/с
Субтитры: Английские

Семпл

x264 [info]: frame I:784 Avg QP:15.70 size: 45371
x264 [info]: frame P:33259 Avg QP:18.82 size: 16917
x264 [info]: frame B:109025 Avg QP:19.93 size: 6209

Format : Matroska
Format version : Version 4 / Version 2
File size : 1.46 GiB
Duration : 1h 39mn
Overall bit rate : 2 097 Kbps
Movie name : -=MediaClub - Odessit=-
Encoded date : UTC 2013-12-06 14:34:22
Writing application : mkvmerge v6.2.0 ('Promised Land') built on Apr 28 2013 12:22:01
Writing library : libebml v1.3.0 + libmatroska v1.4.0

Video
ID : 1
Format : AVC
Format/Info : Advanced Video Codec
Format profile : High@L4.1
Format settings, CABAC : Yes
Format settings, ReFrames : 12 frames
Codec ID : V_MPEG4/ISO/AVC
Duration : 1h 39mn
Bit rate : 1 716 Kbps
Width : 1 024 pixels
Height : 428 pixels
Display aspect ratio : 2.40:1
Frame rate : 24.000 fps
Color space : YUV
Chroma subsampling : 4:2:0
Bit depth : 8 bits
Scan type : Progressive
Bits/(Pixel*Frame) : 0.163
Stream size : 1.16 GiB (80%)
Writing library : x264 core 130 r2273 b3065e6
Encoding settings : cabac=1 / ref=12 / deblock=1:-2:-2 / analyse=0x3:0x133 / me=umh / subme=11 / psy=1 / psy_rd=1.00:0.20 / mixed_ref=1 / me_range=48 / chroma_me=1 / trellis=2 / 8x8dct=1 / cqm=0 / deadzone=21,11 / fast_pskip=0 / chroma_qp_offset=-3 / threads=6 / lookahead_threads=1 / sliced_threads=0 / nr=0 / decimate=0 / interlaced=0 / bluray_compat=0 / constrained_intra=0 / bframes=9 / b_pyramid=2 / b_adapt=2 / b_bias=0 / direct=3 / weightb=1 / open_gop=0 / weightp=2 / keyint=240 / keyint_min=24 / scenecut=40 / intra_refresh=0 / rc=2pass / mbtree=0 / bitrate=1716 / ratetol=1.0 / qcomp=0.60 / qpmin=0 / qpmax=69 / qpstep=4 / cplxblur=20.0 / qblur=0.5 / ip_ratio=1.40 / pb_ratio=1.30 / aq=1:1.00
Language : English

Audio
ID : 2
Format : AC-3
Format/Info : Audio Coding 3
Mode extension : CM (complete main)
Codec ID : A_AC3
Duration : 1h 39mn
Bit rate mode : Constant
Bit rate : 384 Kbps
Channel(s) : 6 channels
Channel positions : Front: L C R, Side: L R, LFE
Sampling rate : 48.0 KHz
Bit depth : 16 bits
Compression mode : Lossy
Stream size : 273 MiB (18%)
Language : Russian

Text
ID : 3
Format : UTF-8
Codec ID : S_TEXT/UTF8
Codec ID/Info : UTF-8 Plain Text
Language : English

Menu
00:00:00.000 : ru:Chapter 1
00:00:41.000 : ru:Chapter 2
00:08:35.583 : ru:Chapter 3
00:23:31.875 : ru:Chapter 4
00:29:56.750 : ru:Chapter 5
00:44:46.083 : ru:Chapter 6
01:02:40.875 : ru:Chapter 7
01:12:17.666 : ru:Chapter 8
01:17:41.958 : ru:Chapter 9



Релиз от: |



   Похожие торренты   Торрент   Размер 
В этой теме нет новых непрочитанных сообщений. Майор полиции [01-16 из 16] (2013) HDTV 1080p от MediaClub

51 | 108

31.75 ГБ

В этой теме нет новых непрочитанных сообщений. Майор полиции [01-07 из 16] (2013) HDTV 1080p от MediaClub

4 | 32

13.83 ГБ

В этой теме нет новых непрочитанных сообщений. Майор полиции [01-14 из 16] (2013) HDTV 1080p от MediaClub

0 | 12

27.76 ГБ

В этой теме нет новых непрочитанных сообщений. Майор полиции [01-11 из 16] (2013) HDTVRip 720p от MediaClub

7 | 11

17.11 ГБ

В этой теме нет новых непрочитанных сообщений. Майор полиции [01-04 из 16] (2013) HDTV 1080p от MediaClub

11 | 7

7.89 ГБ

В этой теме нет новых непрочитанных сообщений. Майор полиции [01-16 из 16] (2013) HDTVRip 720p от MediaClub

26 | 94

24.89 ГБ

В этой теме нет новых непрочитанных сообщений. Майор полиции [01-04 из 16] (2013) HDTVRip 720p от MediaClub

15 | 21

6.22 ГБ




Вы не можете начинать темы
Вы не можете отвечать на сообщения
Вы не можете редактировать свои сообщения
Вы не можете удалять свои сообщения
Вы не можете добавлять вложения

Перейти:  
Для Мосгорсуда, Роскомнадзора и рекламодателей: mosgorsud-torrent[собачка]yandex.ru
 Вход
ppkBB3cker v.2 © 2008-2014 @ PPK
[ Time : 0.057s | 14 Queries | GZIP : Off ]

Торрент трекер RUTOR.IN, Не можете зайти на rutor.org? Какой новый адрес рутор? Какое зеркало рутор? Не работает rutor.org и зеркала? Тогда наш торрент специально для вас. Rutor.in неофициальное зеркало rutor. В случае если у Вас заблокирован rutor или вдруг Вы не можете на него зайти, то Вы без труда сможете скачать бесплатно и без рекламы последние новинки кино, игр, сериалов и прочего у нас, на Rutor.in. Не нужно использовать прокси, чтобы зайти на рутор, достаточно воспользоваться нашим ресурсом. Все новые фильмы, игры, сериалы, книги и музыка за 2013 и 2014 годы через торрент бесплатно. Скачивайте фильмы в хорошем качестве, игры для пк, xbox, playstation без регистрации. У нас вы найдете новые Зарубежные сериалы и Русские сериалы 2013, 2014, 2015 годов. Оставайтесь с нами, качайте любимые фильмы, игры, сериалы, книги и музыку.