img image001 image001 image001 image001 image001 image001 image001 image001 image001 image001 image001 image001 image001 image001 image001

Planets Sun Sun Sun
Статистика раздачи
Автор: PriZraK | Размер: 5.58 ГБ | Добавлен: 15 фев 2014
Раздают: 32    Качают: 5
Скачать торрент
Скачать торрент
Описание торрента

СообщениеДобавлено: 15 фев 2014 


Майор / Mayor
«Майор - просто человек»



#77

Страна: Россия
Студия: Базелевс Продакшн, Аврора Фильм
Жанр: криминал, драма
Год выпуска: 2013
Продолжительность: 01:39:21

Оригинальная аудиодорожка: русский оригинальный [Лицензия, BD RUS]
Русские субтитры: нет
Режиссер: Юрий Быков / Yuri Bykov
В ролях: Денис Шведов, Ирина Низина, Юрий Быков, Дмитрий Куличков, Кирилл Полухин, Борис Невзоров, Илья Исаев, Владислав Толдыков, Евгений Кочетков, Павел Басов, Владимир Любовский, Сергей Васильев, Сергей Шипилов, Николай Зазуля, Игорь Гайдаров, Павел Ясенок



В день долгожданных родов своей жены майор полиции Сергей Соболев мчится в роддом вне себя от счастья. На скользкой зимней дороге он насмерть сбивает семилетнего мальчика на глазах у несчастной матери. Превышение скорости, неосторожность и пешеходный переход — доказательства очевидны, как и нежелание молодого отца угодить за решетку. Майор использует свое служебное положение, чтобы оправдать себя… Сам того не желая, он запускает целую череду смертей, остановить которую решится слишком поздно.


Тип релиза: BDRip 1080p (исходник: Майор (2013) Blu-ray 1080p AVC DTS-HD 5.1 [RUS])
Контейнер: MKV
Видео кодек: x264
Аудио кодек: AC3
Видео: AVC / High@L4.1 / 2 pass / 24,000 fps / 1920x800p (2,40:1) / 7,4 Mbps / 0.201
Аудио: AC3 / 5.1 ch / 640 kbps / Русский оригинальный, BD RUS
Субтитры: нет
Дополнительно: Сохранены оригинальные чаптеры (главы) как на Blu-ray


Раздача от:


АНОНСЫ МОИХ РАЗДАЧ!












x264 [info]: frame I:770 Avg QP:14.75 size:120409
x264 [info]: frame P:34502 Avg QP:17.20 size: 61550
x264 [info]: frame B:107797 Avg QP:19.10 size: 30580

Общее
Уникальный идентификатор : 207360449752347383932192569864165085880 (0x9C002B81942A065D846BAB37E07152B8)
Полное имя : F:Скачка торрентMajor.2013.BDRip1080p(Killbrain)_[scarabey.org].mkv
Формат : Matroska
Версия формата : Version 2
Размер файла : 5,58 Гбайт
Продолжительность : 1 ч. 39 м.
Общий поток : 8040 Кбит/сек
Название фильма : Major (2013) by Killbrain
Дата кодирования : UTC 2013-12-06 18:51:54
Программа кодирования : mkvmerge v5.8.0 ('No Sleep / Pillow') built on Sep 2 2012 15:37:04
Библиотека кодирования : libebml v1.2.3 + libmatroska v1.3.0

Видео
Идентификатор : 1
Формат : AVC
Формат/Информация : Advanced Video Codec
Профиль формата : High@L4.1
Параметр CABAC формата : Да
Параметр ReFrames формата : 4 кадра
Идентификатор кодека : V_MPEG4/ISO/AVC
Продолжительность : 1 ч. 39 м.
Битрейт : 7400 Кбит/сек
Ширина : 1920 пикселей
Высота : 800 пикселей
Соотношение сторон : 2,40:1
Режим частоты кадров : Постоянный
Частота кадров : 24,000 кадра/сек
Цветовое пространство : YUV
Субдискретизация насыщенности : 4:2:0
Битовая глубина : 8 бит
Тип развёртки : Прогрессивная
Бит/(Пиксели*Кадры) : 0.201
Размер потока : 5,02 Гбайт (90%)
Заголовок : Major (2013)
Библиотека кодирования : x264 core 138 r2358 9e941d1
Настройки программы : cabac=1 / ref=4 / deblock=1:-3:-3 / analyse=0x3:0x113 / me=umh / subme=10 / psy=1 / psy_rd=1.00:0.10 / mixed_ref=1 / me_range=32 / chroma_me=1 / trellis=2 / 8x8dct=1 / cqm=0 / deadzone=21,11 / fast_pskip=0 / chroma_qp_offset=-3 / threads=3 / lookahead_threads=1 / sliced_threads=0 / nr=0 / decimate=0 / interlaced=0 / bluray_compat=0 / constrained_intra=0 / bframes=6 / b_pyramid=2 / b_adapt=2 / b_bias=0 / direct=3 / weightb=1 / open_gop=0 / weightp=2 / keyint=240 / keyint_min=24 / scenecut=40 / intra_refresh=0 / rc_lookahead=60 / rc=2pass / mbtree=0 / bitrate=7400 / ratetol=1.0 / qcomp=0.65 / qpmin=0 / qpmax=69 / qpstep=4 / cplxblur=20.0 / qblur=0.5 / vbv_maxrate=40000 / vbv_bufsize=30000 / nal_hrd=none / ip_ratio=1.40 / pb_ratio=1.30 / aq=1:0.80
Язык : Russian
Default : Да
Forced : Нет

Аудио
Идентификатор : 2
Формат : AC-3
Формат/Информация : Audio Coding 3
Расширение режима : CM (complete main)
Параметр Endianness формата : Big
Идентификатор кодека : A_AC3
Продолжительность : 1 ч. 39 м.
Вид битрейта : Постоянный
Битрейт : 640 Кбит/сек
Каналы : 6 каналов
Расположение каналов : Front: L C R, Side: L R, LFE
Частота : 48,0 КГц
Битовая глубина : 16 бит
Метод сжатия : С потерями
Размер потока : 455 Мбайт (8%)
Заголовок : AC3 / 5.1 ch / 640 kbps / Русский оригинальный, BD RUS
Язык : Russian
Default : Да
Forced : Нет

Меню
00:00:00.000 : :Chapter 01
00:00:41.000 : :Chapter 02
00:08:35.583 : :Chapter 03
00:23:31.875 : :Chapter 04
00:29:56.750 : :Chapter 05
00:44:46.083 : :Chapter 06
01:02:40.875 : :Chapter 07
01:12:17.666 : :Chapter 08
01:17:41.958 : :Chapter 09









   Похожие торренты   Торрент   Размер 
В этой теме нет новых непрочитанных сообщений. Три мушкетера (2013) BDRip 1080p от Killbrain and Scarabey | Лицензия

104 | 14

13.06 ГБ

В этой теме нет новых непрочитанных сообщений. Околофутбола (2013) BDRip 1080p от Killbrain and Scarabey | Лицензия

42 | 8

7.87 ГБ

В этой теме нет новых непрочитанных сообщений. Самолеты / Planes (2013) BDRip 1080p от Killbrain and Scarabey | Лицензия

20 | 5

6.57 ГБ

В этой теме нет новых непрочитанных сообщений. Пипец 2 / Kick-Ass 2 (2013) BDRip 1080p от Killbrain and Scarabey | Лицензия

30 | 2

6.39 ГБ

В этой теме нет новых непрочитанных сообщений. Два ствола / 2 Guns (2013) BDRip 1080p от Killbrain and Scarabey | Лицензия

123 | 17

8.49 ГБ

В этой теме нет новых непрочитанных сообщений. Турбо / Turbo (2013) BDRip 1080p от Killbrain and Scarabey | Лицензия

178 | 2

5.44 ГБ

В этой теме нет новых непрочитанных сообщений. Смурфики 2 / The Smurfs 2 (2013) BDRip 1080p от Killbrain and Scarabey | Лицензия

5 | 2

8.15 ГБ




Вы не можете начинать темы
Вы не можете отвечать на сообщения
Вы не можете редактировать свои сообщения
Вы не можете удалять свои сообщения
Вы не можете добавлять вложения

Перейти:  
Для Мосгорсуда, Роскомнадзора и рекламодателей: mosgorsud-torrent[собачка]yandex.ru
 Вход
ppkBB3cker v.2 © 2008-2014 @ PPK
[ Time : 0.048s | 16 Queries | GZIP : Off ]

Торрент трекер RUTOR.IN, Не можете зайти на rutor.org? Какой новый адрес рутор? Какое зеркало рутор? Не работает rutor.org и зеркала? Тогда наш торрент специально для вас. Rutor.in неофициальное зеркало rutor. В случае если у Вас заблокирован rutor или вдруг Вы не можете на него зайти, то Вы без труда сможете скачать бесплатно и без рекламы последние новинки кино, игр, сериалов и прочего у нас, на Rutor.in. Не нужно использовать прокси, чтобы зайти на рутор, достаточно воспользоваться нашим ресурсом. Все новые фильмы, игры, сериалы, книги и музыка за 2013 и 2014 годы через торрент бесплатно. Скачивайте фильмы в хорошем качестве, игры для пк, xbox, playstation без регистрации. У нас вы найдете новые Зарубежные сериалы и Русские сериалы 2013, 2014, 2015 годов. Оставайтесь с нами, качайте любимые фильмы, игры, сериалы, книги и музыку.
cron