img image001 image001 image001 image001 image001 image001 image001 image001 image001 image001 image001 image001 image001 image001 image001

Planets Sun Sun Sun
Статистика раздачи
Автор: PriZraK | Размер: 745.17 МБ | Добавлен: 15 фев 2014
Раздают: 8    Качают: 6
Скачать торрент
Скачать торрент
Описание торрента

СообщениеДобавлено: 15 фев 2014 


#77
Страна: СССР
Производство: Ленфильм
Жанр: фэнтези, семейный
Год выпуска: 1968
Продолжительность: 01:31:27

Перевод: не требуется
Оригинальная аудиодорожка: русский
Cубтитры: нет

Режиссёр: Надежда Кошеверова

В ролях:
Олег Даль, Марина Неёлова, Георгий Вицин, Игорь Дмитриев, Вера Титова, Анатолий Абрамов, А. Аввакумов, Н. Белчивичин, М. Дмитриевский, Владимир Этуш...

Описание:
Главный герой фильма — сказочник, живущий в бедном и сером мире, и от него уходит жена. Он сочиняет сказку, в которой сам в образе храброго солдата находит огниво и ему помогает добрый волшебник.
Солдат полюбил избалованную, капризную принцессу, загадывающую, как и полагается принцессе, загадки многочисленным женихам. Ее отец, король, очень хочет видеть мужем солдата, так как думает, что у того очень много золота.
В сказке все кончается очень хорошо, а вот в жизни у сказочника все складывается плохо. «Но жизнь ведь не сказка» — говорит уходя жена…





Исходник: DVD9 R5
Тип релиза: DVDRip
Контейнер: AVI

Видео: 656x272 (2,40:1), 25 fps, XviD ~ 1001 kbps avg, 0.224 bit/pixel
Аудио: 48 kHz, MP3 2.0, 128 kbps

Раздача от:
Общее
Полное имя : Staraya.staraya.skazka.1968.DVDRip-745_[New-team]_by_AVP_Studio.avi
Формат : AVI
Формат/Информация : Audio Video Interleave
Размер файла : 745 Мбайт
Продолжительность : 1 ч. 31 м.
Общий поток : 1138 Кбит/сек
Программа кодирования : VirtualDubModRus 1.5.10.2 (build 2542/release)
Библиотека кодирования : VirtualDubMod build 2542/release

Видео
Идентификатор : 0
Формат : MPEG-4 Visual
Профиль формата : Advanced Simple@L5
Параметр BVOP формата : 1
Параметр QPel формата : Нет
Параметр GMC формата : Без точки перехода
Параметр матрицы формата : Выборочная
Идентификатор кодека : XVID
Идентификатор кодека/Подсказка : XviD
Продолжительность : 1 ч. 31 м.
Битрейт : 1001 Кбит/сек
Ширина : 656 пикселей
Высота : 272 пикселя
Соотношение сторон : 2,40:1
Частота кадров : 25,000 кадров/сек
Цветовое пространство : YUV
Субдискретизация насыщенности : 4:2:0
Битовая глубина : 8 бит
Тип развёртки : Прогрессивная
Метод сжатия : С потерями
Бит/(Пиксели*Кадры) : 0.224
Размер потока : 655 Мбайт (88%)
Библиотека кодирования : XviD 73

Аудио
Идентификатор : 1
Формат : MPEG Audio
Версия формата : Version 1
Профиль формата : Layer 3
Идентификатор кодека : 55
Идентификатор кодека/Подсказка : MP3
Продолжительность : 1 ч. 31 м.
Вид битрейта : Постоянный
Битрейт : 128 Кбит/сек
Каналы : 2 канала
Частота : 48,0 КГц
Метод сжатия : С потерями
Размер потока : 83,8 Мбайт (11%)
Выравнивание : Соединение по промежуткам
Продолжительность промежутка : 40 мс. (1,00 видеокадр)
Время предзагрузки промежутка : 504 мс.
Библиотека кодирования : LAME3.99r
Настройки программы : -m s -V 4 -q 2 -lowpass 17 -b 128



Рип заменен на более качественный



   Похожие торренты   Торрент   Размер 
В этой теме нет новых непрочитанных сообщений. Старая, старая сказка (1968) DVDRip от New-Team

16 | 5

1.46 ГБ

В этой теме нет новых непрочитанных сообщений. Старая, старая сказка (1968) DVDRip-AVC от New-Team

116 | 15

1.46 ГБ

В этой теме нет новых непрочитанных сообщений. Старая, старая сказка (1968) DVDRip-AVC от New-Team

24 | 8

2.19 ГБ

В этой теме нет новых непрочитанных сообщений. Старая, старая сказка (1968) DVDRip от Youtracker

19 | 3

744.96 МБ

В этой теме нет новых непрочитанных сообщений. Старая, старая сказка (1968) DVDRip-AVC от Youtracker

11 | 3

2.19 ГБ

В этой теме нет новых непрочитанных сообщений. Старая, старая сказка (1968) DVDRip

24 | 9

1.46 ГБ

В этой теме нет новых непрочитанных сообщений. Сказка о царе Салтане (1984) DVDRip-AVC от New-Team

562 | 29

743.97 МБ




Вы не можете начинать темы
Вы не можете отвечать на сообщения
Вы не можете редактировать свои сообщения
Вы не можете удалять свои сообщения
Вы не можете добавлять вложения

Перейти:  
Для Мосгорсуда, Роскомнадзора и рекламодателей: mosgorsud-torrent[собачка]yandex.ru
 Вход
ppkBB3cker v.2 © 2008-2014 @ PPK
[ Time : 0.043s | 14 Queries | GZIP : Off ]

Торрент трекер RUTOR.IN, Не можете зайти на rutor.org? Какой новый адрес рутор? Какое зеркало рутор? Не работает rutor.org и зеркала? Тогда наш торрент специально для вас. Rutor.in неофициальное зеркало rutor. В случае если у Вас заблокирован rutor или вдруг Вы не можете на него зайти, то Вы без труда сможете скачать бесплатно и без рекламы последние новинки кино, игр, сериалов и прочего у нас, на Rutor.in. Не нужно использовать прокси, чтобы зайти на рутор, достаточно воспользоваться нашим ресурсом. Все новые фильмы, игры, сериалы, книги и музыка за 2013 и 2014 годы через торрент бесплатно. Скачивайте фильмы в хорошем качестве, игры для пк, xbox, playstation без регистрации. У нас вы найдете новые Зарубежные сериалы и Русские сериалы 2013, 2014, 2015 годов. Оставайтесь с нами, качайте любимые фильмы, игры, сериалы, книги и музыку.