img image001 image001 image001 image001 image001 image001 image001 image001 image001 image001 image001 image001 image001 image001 image001

Planets Sun Sun Sun
Статистика раздачи
Автор: PriZraK | Размер: 6.33 ГБ | Добавлен: 15 фев 2014
Раздают: 20    Качают: 5
Скачать торрент
Скачать торрент
Описание торрента

СообщениеДобавлено: 15 фев 2014 




Информация о фильме
Оригинальное название: Афоня
Год выпуска: 1975
Жанр: Эксцентрическая комедия
Выпущено: СССР, Мосфильм
Режиссер: Георгий Данелия
В ролях: Леонид Куравлёв, Евгения Симонова, Евгений Леонов, Борислав Брондуков, Валентина Талызина, Владимир Басов, Николай Парфёнов, Готлиб Ронинсон, Нина Русланова, Раиса Куркина, Нина Маслова, Алексей Ванин, Савелий Крамаров, Николай Гринько, Николай Граббе, Тамара Совчи, Раднэр Муратов, Татьяна Распутина

О фильме: Весело и беззаботно жил слесарь-сантехник Афанасий. Не гнушался левыми заработками, любил выпить, поволочиться за девушками. Так проходил день за днём, но однажды...О том, что случилось с Афоней, рассказывает фильм признанного мастера комедии Георгия Данелии.

Файл
Качество: BDRip (1080p)
Видео: MPEG-4 AVC, 7700 Кбит/с, 1488x1080
Аудио: Русский (AC3, 6 ch, 640 Кбит/с), (DTS, 6 ch, 1510 Кбит/с)
Размер: 6.33 ГБ
Продолжительность: 01:31:57
Язык: Русский
Субтитры: Русские, английские

Общее
Уникальный идентификатор : 215459844460504069380536857652732471496 (0xA2180E7F09CBD29FAAD9692127A1A8C8)
Полное имя : D:AFONYA_BDRip.10080p_CMEGRoup.mkv
Формат : Matroska
Версия формата : Version 2
Размер файла : 6,33 Гбайт
Продолжительность : 1 ч. 31 м.
Общий поток : 9852 Кбит/сек
Название фильма : Release for CMEGRoup
Дата кодирования : UTC 2013-12-11 00:53:00
Программа кодирования : mkvmerge v6.3.0 ('You can't stop me!') built on Jun 28 2013 20:09:41
Библиотека кодирования : libebml v1.3.0 + libmatroska v1.4.0
Видео
Идентификатор : 1
Формат : AVC
Формат/Информация : Advanced Video Codec
Профиль формата : High@L4.1
Параметр CABAC формата : Да
Параметр ReFrames формата : 4 кадра
Идентификатор кодека : V_MPEG4/ISO/AVC
Продолжительность : 1 ч. 31 м.
Битрейт : 7700 Кбит/сек
Ширина : 1488 пикселей
Высота : 1080 пикселей
Соотношение сторон : 1,378
Режим частоты кадров : Постоянный
Частота кадров : 23,976 кадра/сек
Цветовое пространство : YUV
Субдискретизация насыщенности : 4:2:0
Битовая глубина : 8 бит
Тип развёртки : Прогрессивная
Бит/(Пиксели*Кадры) : 0.200
Размер потока : 4,82 Гбайт (76%)
Заголовок : Release for CMEGRoup
Библиотека кодирования : x264 core 138 r2358 9e941d1
Настройки программы : cabac=1 / ref=4 / deblock=1:-3:-3 / analyse=0x3:0x113 / me=umh / subme=11 / psy=1 / psy_rd=1.00:0.00 / mixed_ref=1 / me_range=32 / chroma_me=1 / trellis=2 / 8x8dct=1 / cqm=0 / deadzone=21,11 / fast_pskip=1 / chroma_qp_offset=-2 / threads=12 / lookahead_threads=1 / sliced_threads=0 / nr=0 / decimate=1 / interlaced=0 / bluray_compat=0 / constrained_intra=0 / bframes=5 / b_pyramid=2 / b_adapt=1 / b_bias=0 / direct=2 / weightb=1 / open_gop=0 / weightp=2 / keyint=240 / keyint_min=23 / scenecut=40 / intra_refresh=0 / rc_lookahead=40 / rc=2pass / mbtree=1 / bitrate=7700 / ratetol=1.0 / qcomp=0.60 / qpmin=10 / qpmax=51 / qpstep=4 / cplxblur=20.0 / qblur=0.5 / vbv_maxrate=62500 / vbv_bufsize=78125 / nal_hrd=none / ip_ratio=1.40 / aq=1:1.00 / zones=129356,132279,q=40
Язык : English
Default : Да
Forced : Нет
Аудио #1
Идентификатор : 2
Формат : DTS
Формат/Информация : Digital Theater Systems
Режим : 16
Параметр Endianness формата : Big
Идентификатор кодека : A_DTS
Продолжительность : 1 ч. 31 м.
Вид битрейта : Постоянный
Битрейт : 1509 Кбит/сек
Каналы : 6 каналов
Расположение каналов : Front: L C R, Side: L R, LFE
Частота : 48,0 КГц
Битовая глубина : 24 бит
Метод сжатия : С потерями
Размер потока : 992 Мбайт (15%)
Язык : Russian
Default : Да
Forced : Нет
Аудио #2
Идентификатор : 3
Формат : AC-3
Формат/Информация : Audio Coding 3
Расширение режима : CM (complete main)
Параметр Endianness формата : Big
Идентификатор кодека : A_AC3
Продолжительность : 1 ч. 31 м.
Вид битрейта : Постоянный
Битрейт : 640 Кбит/сек
Каналы : 6 каналов
Расположение каналов : Front: L C R, Side: L R, LFE
Частота : 48,0 КГц
Битовая глубина : 16 бит
Метод сжатия : С потерями
Размер потока : 421 Мбайт (6%)
Язык : Russian
Default : Нет
Forced : Нет
Текст #1
Идентификатор : 4
Формат : UTF-8
Идентификатор кодека : S_TEXT/UTF8
Идентификатор кодека/Информация : UTF-8 Plain Text
Язык : Russian
Default : Нет
Forced : Нет
Текст #2
Идентификатор : 5
Формат : UTF-8
Идентификатор кодека : S_TEXT/UTF8
Идентификатор кодека/Информация : UTF-8 Plain Text
Язык : English
Default : Нет
Forced : Нет
Меню #1
00:00:00.000 : en:00:00:00.000
00:07:11.431 : en:00:07:11.431
00:11:12.672 : en:00:11:12.672
00:19:32.171 : en:00:11:12.672
00:24:03.066 : en:00:24:03.066
00:31:43.902 : en:00:31:43.902
00:42:34.552 : en:00:42:34.552
00:51:58.615 : en:00:51:58.615
01:00:26.622 : en:01:00:26.622
01:09:38.174 : en:01:09:38.174
01:15:31.610 : en:01:15:31.610
01:23:30.130 : en:01:23:30.130
Меню #2
00:00:00.000 : en:00:00:00.000
00:07:11.431 : en:00:07:11.431
00:11:12.672 : en:00:11:12.672
00:19:32.171 : en:00:11:12.672
00:24:03.066 : en:00:24:03.066
00:31:43.902 : en:00:31:43.902
00:42:34.552 : en:00:42:34.552
00:51:58.615 : en:00:51:58.615
01:00:26.622 : en:01:00:26.622
01:09:38.174 : en:01:09:38.174
01:15:31.610 : en:01:15:31.610
01:23:30.130 : en:01:23:30.130






Релиз от:



   Похожие торренты   Торрент   Размер 
В этой теме нет новых непрочитанных сообщений. Афоня (1975) BDRip 1080p

126 | 22

7.76 ГБ

В этой теме нет новых непрочитанных сообщений. Афоня (1975) BDRip 1080p от New-Team

32 | 17

4.98 ГБ

В этой теме нет новых непрочитанных сообщений. Афоня (1975) BDRip-HEVC 1080p от FREEISLAND

14 | 17

4.12 ГБ

В этой теме нет новых непрочитанных сообщений. Афоня (1975) Blu-Ray 1080p

213 | 6

22 ГБ

В этой теме нет новых непрочитанных сообщений. Афоня (1975) Blu-Ray Remux 1080p

21 | 9

14.91 ГБ

В этой теме нет новых непрочитанных сообщений. Афоня (1975) BDRip

710 | 36

1.46 ГБ

В этой теме нет новых непрочитанных сообщений. Афоня (1975) BDRip от HQCLUB

207 | 18

1.45 ГБ




Вы не можете начинать темы
Вы не можете отвечать на сообщения
Вы не можете редактировать свои сообщения
Вы не можете удалять свои сообщения
Вы не можете добавлять вложения

Перейти:  
Для Мосгорсуда, Роскомнадзора и рекламодателей: mosgorsud-torrent[собачка]yandex.ru
 Вход
ppkBB3cker v.2 © 2008-2014 @ PPK
[ Time : 0.012s | 14 Queries | GZIP : Off ]
CGP output time : 0.045s | 5 Queries | GZIP : Off

Торрент трекер RUTOR.IN, Не можете зайти на rutor.org? Какой новый адрес рутор? Какое зеркало рутор? Не работает rutor.org и зеркала? Тогда наш торрент специально для вас. Rutor.in неофициальное зеркало rutor. В случае если у Вас заблокирован rutor или вдруг Вы не можете на него зайти, то Вы без труда сможете скачать бесплатно и без рекламы последние новинки кино, игр, сериалов и прочего у нас, на Rutor.in. Не нужно использовать прокси, чтобы зайти на рутор, достаточно воспользоваться нашим ресурсом. Все новые фильмы, игры, сериалы, книги и музыка за 2013 и 2014 годы через торрент бесплатно. Скачивайте фильмы в хорошем качестве, игры для пк, xbox, playstation без регистрации. У нас вы найдете новые Зарубежные сериалы и Русские сериалы 2013, 2014, 2015 годов. Оставайтесь с нами, качайте любимые фильмы, игры, сериалы, книги и музыку.