img image001 image001 image001 image001 image001 image001 image001 image001 image001 image001 image001 image001 image001 image001 image001

Planets Sun Sun Sun
Статистика раздачи
Автор: PriZraK | Размер: 743.2 МБ | Добавлен: 15 фев 2014
Раздают: 20    Качают: 12
Скачать торрент
Скачать торрент
Описание торрента

СообщениеДобавлено: 15 фев 2014 


#77
Страна: СССР
Производство: Студия Горького
Жанр: военный
Год выпуска: 1981
Продолжительность: 01:16:00

Перевод: не требуется
Оригинальная аудиодорожка: русский
Cубтитры: нет

Режиссёр: Евгения Жигуленко

В ролях:
Валентина Грушина, Яна Друзь, Дима Замулин, Нина Меньшикова, Валерия Заклунная, Татьяна Микрикова, Елена Астафьева, Александра Свиридова, Сергей Мартынов, Додо Чоговадзе, Станислав Коренев, Валентина Клягина...

Описание:
Фильм рассказывает о подвиге советских лётчиц, которые во время Великой Отечественной войны преимущественно в ночное время бомбили позиции немецко-фашистских войск и коммуникации противника. У немцев при внезапном появлении ночью советских самолётов возникал ужас, и они стали называть их «ночными ведьмами». Лётчицы в основном летали на переоборудованных под легкие бомбардировщики учебных самолётах У-2. Прозвище «ночные ведьмы», считали лётчицы, было высокой оценкой их ратного труда…





Исходник: DVD5 R5
Тип релиза: DVDRip
Контейнер: AVI

Видео: 656x496 (4:3), 25 fps, XviD ~ 1229 kbps avg, 0.151 bit/pixel
Аудио: 48 kHz, MP3 2.0, 128 kbps

Раздача от:
Общее
Полное имя : V.nebe.nochnye.vedmy.1981.DVDRip_[New-team]_by_AVP_Studio.avi
Формат : AVI
Формат/Информация : Audio Video Interleave
Размер файла : 743 Мбайт
Продолжительность : 1 ч. 16 м.
Общий поток : 1367 Кбит/сек
Программа кодирования : VirtualDubModRus 1.5.10.2 (build 2542/release)
Библиотека кодирования : VirtualDubMod build 2542/release

Видео
Идентификатор : 0
Формат : MPEG-4 Visual
Профиль формата : Advanced Simple@L5
Параметр BVOP формата : 1
Параметр QPel формата : Нет
Параметр GMC формата : Без точки перехода
Параметр матрицы формата : Выборочная
Идентификатор кодека : XVID
Идентификатор кодека/Подсказка : XviD
Продолжительность : 1 ч. 16 м.
Битрейт : 1229 Кбит/сек
Ширина : 656 пикселей
Высота : 496 пикселей
Соотношение сторон : 4:3
Частота кадров : 25,000 кадров/сек
Цветовое пространство : YUV
Субдискретизация насыщенности : 4:2:0
Битовая глубина : 8 бит
Тип развёртки : Прогрессивная
Метод сжатия : С потерями
Бит/(Пиксели*Кадры) : 0.151
Размер потока : 668 Мбайт (90%)
Библиотека кодирования : XviD 73

Аудио
Идентификатор : 1
Формат : MPEG Audio
Версия формата : Version 1
Профиль формата : Layer 3
Идентификатор кодека : 55
Идентификатор кодека/Подсказка : MP3
Продолжительность : 1 ч. 16 м.
Вид битрейта : Постоянный
Битрейт : 128 Кбит/сек
Каналы : 2 канала
Частота : 48,0 КГц
Метод сжатия : С потерями
Размер потока : 69,6 Мбайт (9%)
Выравнивание : Соединение по промежуткам
Продолжительность промежутка : 40 мс. (1,00 видеокадр)
Время предзагрузки промежутка : 504 мс.
Библиотека кодирования : LAME3.99r
Настройки программы : -m s -V 4 -q 2 -lowpass 17 -b 128



Прообразом части, где служат героини фильма, стал 46-й гвардейский ночной бомбардировочный авиационный полк, сформированный по предложению Марины Расковой. Режиссёр фильма Евгения Жигуленко воевала в составе этого авиаполка, была командиром звена и за проявленное в боях мужество стала Героем Советского Союза.



   Похожие торренты   Торрент   Размер 
В этой теме нет новых непрочитанных сообщений. В небе «ночные ведьмы» (1981) DVDRip-AVC от New-Team

9 | 7

744.12 МБ

В этой теме нет новых непрочитанных сообщений. В небе "Ночные ведьмы" (1981) DVDRip от ExKinoRay

147 | 18

1.36 ГБ

В этой теме нет новых непрочитанных сообщений. В небе "Ночные ведьмы" (1981) DVDRip

421 | 150

1.09 ГБ

В этой теме нет новых непрочитанных сообщений. Ночные ястребы / Ночные ястребы (1981) HDTV 1080i от HDClub | P, A

33 | 2

10.74 ГБ

В этой теме нет новых непрочитанных сообщений. Ночные ястребы / Nighthawks (1981) DVDRip от NovaLan

2 | 4

1.7 ГБ

В этой теме нет новых непрочитанных сообщений. Ночные ястребы / Nighthawks (1981) DVD5

0 | 3

4.35 ГБ

В этой теме нет новых непрочитанных сообщений. Ночные ястребы / Nighthawks (1981) BDRemux

22 | 5

13.38 ГБ




Вы не можете начинать темы
Вы не можете отвечать на сообщения
Вы не можете редактировать свои сообщения
Вы не можете удалять свои сообщения
Вы не можете добавлять вложения

Перейти:  
Для Мосгорсуда, Роскомнадзора и рекламодателей: mosgorsud-torrent[собачка]yandex.ru
 Вход
ppkBB3cker v.2 © 2008-2014 @ PPK
[ Time : 0.556s | 15 Queries | GZIP : Off ]

Торрент трекер RUTOR.IN, Не можете зайти на rutor.org? Какой новый адрес рутор? Какое зеркало рутор? Не работает rutor.org и зеркала? Тогда наш торрент специально для вас. Rutor.in неофициальное зеркало rutor. В случае если у Вас заблокирован rutor или вдруг Вы не можете на него зайти, то Вы без труда сможете скачать бесплатно и без рекламы последние новинки кино, игр, сериалов и прочего у нас, на Rutor.in. Не нужно использовать прокси, чтобы зайти на рутор, достаточно воспользоваться нашим ресурсом. Все новые фильмы, игры, сериалы, книги и музыка за 2013 и 2014 годы через торрент бесплатно. Скачивайте фильмы в хорошем качестве, игры для пк, xbox, playstation без регистрации. У нас вы найдете новые Зарубежные сериалы и Русские сериалы 2013, 2014, 2015 годов. Оставайтесь с нами, качайте любимые фильмы, игры, сериалы, книги и музыку.
cron