img image001 image001 image001 image001 image001 image001 image001 image001 image001 image001 image001 image001 image001 image001 image001

Planets Sun Sun Sun
Статистика раздачи
Автор: PriZraK | Размер: 7.76 ГБ | Добавлен: 15 фев 2014
Раздают: 227    Качают: 15
Скачать торрент
Скачать торрент
Описание торрента

СообщениеДобавлено: 15 фев 2014 




Информация о фильме
Название: Карнавальная ночь
Оригинальное название: Карнавальная ночь
Год выхода: 1956
Жанр: мюзикл, мелодрама, комедия
Режиссер: Эльдар Рязанов
В ролях: Игорь Ильинский, Людмила Гурченко, Юрий Белов, Георгий Куликов, Сергей Филиппов, Ольга Власова, Андрей Тутышкин, Тамара Носова, Геннадий Юдин, Владимир Зельдин

О фильме:
Веселая победа над теперь уже вовсе не страшным дураком бюрократом милого коллектива во главе со стройной девушкой. Из картины Рязанова так и рвется наружу радость освобождения.



Выпущено: СССР
Студия: Мосфильм
Продолжительность: 01:15:31
Перевод: Не требуется

Файл
Кодек: x264
Качество: BDRip (источник: Blu-ray Disc)
Видео: 1480x1080 (1,37:1), 23.976 fps, 14,3 Mbps
Аудио #1: AC-3, 6 ch, 448 kbps (Rus)
Субтитры: Нет

Общее
Уникальный идентификатор : 196904684357429709482110251387128642764 (0x94227678B61B460A829924E97E33FCCC)
Полное имя : F:Карнавальная.ночь.1956.BDRip.1080p.Rus.mkv
Формат : Matroska
Версия формата : Version 2
Размер файла : 7,76 Гбайт
Продолжительность : 1 ч. 15 м.
Общий поток : 14,7 Мбит/сек
Название фильма : Карнавальная ночь (1956)
Дата кодирования : UTC 2013-12-11 22:41:18
Программа кодирования : mkvmerge v5.8.0 ('No Sleep / Pillow') built on Sep 2 2012 15:37:04
Библиотека кодирования : libebml v1.2.3 + libmatroska v1.3.0
Attachment : Yes

Видео
Идентификатор : 1
Формат : AVC
Формат/Информация : Advanced Video Codec
Профиль формата : High@L4.1
Параметр CABAC формата : Да
Параметр ReFrames формата : 5 кадров
Идентификатор кодека : V_MPEG4/ISO/AVC
Продолжительность : 1 ч. 15 м.
Битрейт : 14,3 Мбит/сек
Ширина : 1480 пикселей
Высота : 1080 пикселей
Соотношение сторон : 1,370
Режим частоты кадров : Постоянный
Частота кадров : 23,976 кадра/сек
Цветовое пространство : YUV
Субдискретизация насыщенности : 4:2:0
Битовая глубина : 8 бит
Тип развёртки : Прогрессивная
Бит/(Пиксели*Кадры) : 0.372
Размер потока : 7,37 Гбайт (95%)
Заголовок : Release by N1NT3NDO
Библиотека кодирования : x264 core 140 r2377 1ca7bb9
Настройки программы : cabac=1 / ref=5 / deblock=1:-3:-3 / analyse=0x3:0x133 / me=umh / subme=11 / psy=1 / psy_rd=1.00:0.00 / mixed_ref=1 / me_range=32 / chroma_me=1 / trellis=2 / 8x8dct=1 / cqm=0 / deadzone=21,11 / fast_pskip=0 / chroma_qp_offset=-2 / threads=12 / lookahead_threads=1 / sliced_threads=0 / nr=0 / decimate=0 / interlaced=0 / bluray_compat=0 / constrained_intra=0 / bframes=6 / b_pyramid=2 / b_adapt=2 / b_bias=0 / direct=3 / weightb=1 / open_gop=0 / weightp=2 / keyint=240 / keyint_min=23 / scenecut=40 / intra_refresh=0 / rc=2pass / mbtree=0 / bitrate=14262 / ratetol=1.0 / qcomp=0.60 / qpmin=0 / qpmax=69 / qpstep=4 / cplxblur=20.0 / qblur=0.5 / ip_ratio=1.40 / pb_ratio=1.30 / aq=1:1.00
Язык : English
Default : Да
Forced : Нет

Аудио
Идентификатор : 2
Формат : AC-3
Формат/Информация : Audio Coding 3
Расширение режима : CM (complete main)
Параметр Endianness формата : Big
Идентификатор кодека : A_AC3
Продолжительность : 1 ч. 15 м.
Вид битрейта : Постоянный
Битрейт : 448 Кбит/сек
Каналы : 6 каналов
Расположение каналов : Front: L C R, Side: L R, LFE
Частота : 48,0 КГц
Битовая глубина : 16 бит
Метод сжатия : С потерями
Размер потока : 242 Мбайт (3%)
Заголовок : Rus
Язык : Russian
Default : Да
Forced : Нет

Меню
00:00:00.000 : :Chapter 01
00:06:20.380 : :Chapter 02
00:15:02.109 : :Chapter 03
00:22:14.624 : :Chapter 04
00:29:50.371 : :Chapter 05
00:33:37.682 : :Chapter 06
00:40:10.408 : :Chapter 07
00:47:34.852 : :Chapter 08
00:54:18.171 : :Chapter 09
01:00:56.611 : :Chapter 10
01:07:08.274 : :Chapter 11
01:11:04.760 : :Chapter 12
x264 [info]: frame I:675 Avg QP:15.52 size:232457
x264 [info]: frame P:24626 Avg QP:17.91 size:143956
x264 [info]: frame B:83338 Avg QP:19.64 size: 52509
x264 [info]: consecutive B-frames: 2.2% 2.5% 10.8% 20.4% 14.7% 49.0% 0.4%



   Похожие торренты   Торрент   Размер 
В этой теме нет новых непрочитанных сообщений. Карнавальная ночь (1956) BDRip 1080p от New-Team

2 | 0

4.37 ГБ

В этой теме нет новых непрочитанных сообщений. Карнавальная ночь (1956) BDRip от HQCLUB

370 | 14

1.45 ГБ

В этой теме нет новых непрочитанных сообщений. Карнавальная ночь (1956) BDRip от New-Team

29 | 12

743.85 МБ

В этой теме нет новых непрочитанных сообщений. Карнавальная ночь (1956) BDRip-AVC от New-Team

18 | 0

1.09 ГБ

В этой теме нет новых непрочитанных сообщений. Карнавальная ночь (1956) BDRip от New-Team

113 | 17

1.45 ГБ

В этой теме нет новых непрочитанных сообщений. Карнавальная ночь (1956) BDRip-AVC от MediaClub

338 | 37

1.66 ГБ

В этой теме нет новых непрочитанных сообщений. Карнавальная ночь (1956) BDRip 720p от Leonardo and Scarabey | Лицензия

265 | 28

2.78 ГБ




Вы не можете начинать темы
Вы не можете отвечать на сообщения
Вы не можете редактировать свои сообщения
Вы не можете удалять свои сообщения
Вы не можете добавлять вложения

Перейти:  
Для Мосгорсуда, Роскомнадзора и рекламодателей: mosgorsud-torrent[собачка]yandex.ru
 Вход
ppkBB3cker v.2 © 2008-2014 @ PPK
[ Time : 0.039s | 15 Queries | GZIP : Off ]

cron