img image001 image001 image001 image001 image001 image001 image001 image001 image001 image001 image001 image001 image001 image001 image001

Planets Sun Sun Sun
Статистика раздачи
Автор: PriZraK | Размер: 1.69 ГБ | Добавлен: 15 фев 2014
Раздают: 197    Качают: 12
Скачать торрент
Скачать торрент
Описание торрента

СообщениеДобавлено: 15 фев 2014 





Год выпуска: 2013
Страна: Россия
Жанр: Андрей Элинсон
Продолжительность: 01:31:59
Перевод: Оригинал (Русский)


В ролях: Александр Устюгов, Виталий Исаков, Егор Закреничный, Игорь Клочков, Владлена Макейчик, Мария Синяева, Светлана Смирнова-Кацагаджиева, Всеволод Цурило, Сергей Колос, Алексей Федотов, Юрий Орлов, Константин Стрельников, Геннадий Алимпиев, Сергей Перегудов.
Режиссёр: Андрей Элинсон


Описание:Роман Шилов – бывший сотрудник ГУВД. Уйдя с работы, он решил отдохнуть от дел и посвятить время личной жизни. Но работа сама находит его: когда он собирается на свидание к женщине, о которой давно мечтал, раздается звонок. Ему звонит жена Михаила Краснова – свидетеля, который когда-то помог Роману поймать опасного преступника. Новость, которую сообщает Надежда, шокирует: Краснова похитили злоумышленники. Разумеется, Шилов не может отказать в помощи и тут же принимается за собственное расследование, на время забывая и о любви, и о покое. Кому и зачем понадобилось похищать владельца автомастерской провинциального городка?





Качество: WEB-DL 720
Формат: MPEG
Видео кодек: AVC
Аудио кодек: AAC
Видео: MPEG4 Video, (H264) 1280x720, 25fps, 2493kbps
Аудио: AAC, 48000Hz, stereo, 133kbps



Format : MPEG-4
Format profile : Base Media
Codec ID : isom
File size : 1.69 GiB
Duration : 1h 31mn
Overall bit rate mode : Variable
Overall bit rate : 2 630 Kbps
Writing application : Lavf54.63.104

Video
ID : 1
Format : AVC
Format/Info : Advanced Video Codec
Format profile : High@L4.0
Format settings, CABAC : Yes
Format settings, ReFrames : 3 frames
Codec ID : avc1
Codec ID/Info : Advanced Video Coding
Duration : 1h 31mn
Bit rate : 2 500 Kbps
Width : 1 280 pixels
Height : 720 pixels
Display aspect ratio : 16:9
Frame rate mode : Constant
Frame rate : 25.000 fps
Color space : YUV
Chroma subsampling : 4:2:0
Bit depth : 8 bits
Scan type : Progressive
Bits/(Pixel*Frame) : 0.109
Stream size : 1.60 GiB (95%)
Writing library : x264 core 130
Encoding settings : cabac=1 / ref=4 / deblock=1:0:0 / analyse=0x3:0x133 / me=umh / subme=9 / psy=1 / psy_rd=1.00:0.00 / mixed_ref=1 / me_range=24 / chroma_me=1 / trellis=2 / 8x8dct=1 / cqm=0 / deadzone=21,11 / fast_pskip=1 / chroma_qp_offset=-2 / threads=2 / lookahead_threads=1 / sliced_threads=0 / nr=0 / decimate=1 / interlaced=0 / bluray_compat=0 / constrained_intra=0 / bframes=9 / b_pyramid=1 / b_adapt=2 / b_bias=0 / direct=3 / weightb=1 / open_gop=0 / weightp=2 / keyint=100 / keyint_min=10 / scenecut=40 / intra_refresh=0 / rc_lookahead=100 / rc=2pass / mbtree=1 / bitrate=2500 / ratetol=1.0 / qcomp=0.60 / qpmin=0 / qpmax=69 / qpstep=4 / cplxblur=20.0 / qblur=0.5 / vbv_maxrate=3250 / vbv_bufsize=3750 / nal_hrd=none / ip_ratio=1.40 / aq=1:1.00
Language : Russian
Tagged date : UTC 2013-10-23 18:56:32

Audio
ID : 2
Format : AAC
Format/Info : Advanced Audio Codec
Format profile : LC
Codec ID : 40
Duration : 1h 31mn
Source duration : 1h 31mn
Bit rate mode : Variable
Bit rate : 132 Kbps
Maximum bit rate : 3 250 Kbps
Channel count : 2 channels
Channel positions : Front: L R
Sampling rate : 48.0 KHz
Compression mode : Lossy
Delay relative to video : 37ms
Stream size : 87.8 MiB (5%)
Source stream size : 87.8 MiB (5%)
Language : Russian









   Похожие торренты   Торрент   Размер 
В этой теме нет новых непрочитанных сообщений. Моя фамилия Шилов (2013) SATRip

163 | 6

1.37 ГБ

В этой теме нет новых непрочитанных сообщений. Моя фамилия Шилов (2013) SATRip

23 | 2

708.23 МБ

В этой теме нет новых непрочитанных сообщений. Моя фамилия Шилов (2013) HDTVRip-AVC от Files-x

30 | 1

1.37 ГБ

В этой теме нет новых непрочитанных сообщений. Моя фамилия Шилов (2013) SATRip от Youtracker | КПК

1 | 2

790.39 МБ

В этой теме нет новых непрочитанных сообщений. Моя фамилия Шилов (2013) WEB-DLRip от Deadmauvlad

47 | 4

733.34 МБ

В этой теме нет новых непрочитанных сообщений. Моя фамилия Шилов (2013) HDTV 1080i от Files-x

17 | 0

5.21 ГБ

В этой теме нет новых непрочитанных сообщений. Устинова Татьяна - Развод и девичья фамилия (2013) MP3

242 | 67

519.37 МБ




Вы не можете начинать темы
Вы не можете отвечать на сообщения
Вы не можете редактировать свои сообщения
Вы не можете удалять свои сообщения
Вы не можете добавлять вложения

Перейти:  
Для Мосгорсуда, Роскомнадзора и рекламодателей: mosgorsud-torrent[собачка]yandex.ru
 Вход
ppkBB3cker v.2 © 2008-2014 @ PPK
[ Time : 0.310s | 15 Queries | GZIP : Off ]

Торрент трекер RUTOR.IN, Не можете зайти на rutor.org? Какой новый адрес рутор? Какое зеркало рутор? Не работает rutor.org и зеркала? Тогда наш торрент специально для вас. Rutor.in неофициальное зеркало rutor. В случае если у Вас заблокирован rutor или вдруг Вы не можете на него зайти, то Вы без труда сможете скачать бесплатно и без рекламы последние новинки кино, игр, сериалов и прочего у нас, на Rutor.in. Не нужно использовать прокси, чтобы зайти на рутор, достаточно воспользоваться нашим ресурсом. Все новые фильмы, игры, сериалы, книги и музыка за 2013 и 2014 годы через торрент бесплатно. Скачивайте фильмы в хорошем качестве, игры для пк, xbox, playstation без регистрации. У нас вы найдете новые Зарубежные сериалы и Русские сериалы 2013, 2014, 2015 годов. Оставайтесь с нами, качайте любимые фильмы, игры, сериалы, книги и музыку.
cron