img image001 image001 image001 image001 image001 image001 image001 image001 image001 image001 image001 image001 image001 image001 image001

Planets Sun Sun Sun
Статистика раздачи
Автор: PriZraK | Размер: 747.54 МБ | Добавлен: 15 фев 2014
Раздают: 142    Качают: 9
Скачать торрент
Скачать торрент
Описание торрента

СообщениеДобавлено: 15 фев 2014 


«Дар или проклятие»




Год выпуска: 2013
Страна: Россия / B-Tween, ВГТРК
Жанр: драма, биография, история
Продолжительность: 01:23:03
Субтитры: нет
Режиссер: Ираклий Квирикадзе



В ролях:
Жерар Депардье, Фанни Ардан, Владимир Машков, Анна Михалкова, Филипп Янковский, Ирина Алферова, Данила Козловский, Юрий Колокольников, Ксения Раппопорт, Константин Хабенский и др.

Описание:
Начало ХХ века, Европа охвачена войной, Российская империя на краю пропасти. Внезапное появление загадочного Григория Распутина в царских покоях вызывает волну негодования при дворе. Сибирский целитель облегчает страдания неизлечимо больного наследника престола, проповедует и творит чудеса. Императрица уверена, что всё не случайно и Григорий — божий человек, спаситель, посланный свыше. Ее уверенность разделяют далеко не все. Вокруг «святого беса» плетутся заговоры, его мистическая власть над царской семьей и нежная дружба с императрицей раздражают слишком многих. Россия, монархия и Распутин в эпицентре приближающейся катастрофы.

Качество: DVDRip | Сэмпл
Формат: AVI
Видео: MPEG4, XviD, 656x368 (16:9), 25.000 fps, 1 121 Kbps (0.186 bit/pixel)
Аудио: MP3, 48.0 KHz, 2 ch, 128 Kbps, CBR
Код:
General
Complete name                            : Rasputin2013_745MB_ArtZak_brodim.avi
Format                                   : AVI
Format/Info                              : Audio Video Interleave
File size                                : 748 MiB
Duration                                 : 1h 23mn
Overall bit rate                         : 1 258 Kbps
Writing application                      : VirtualDubMod 1.5.10.2 (build 2540/release)
Writing library                          : VirtualDubMod build 2540/release

Video
ID                                       : 0
Format                                   : MPEG-4 Visual
Format profile                           : Advanced Simple@L5
Format settings, BVOP                    : 2
Format settings, QPel                    : No
Format settings, GMC                     : No warppoints
Format settings, Matrix                  : Default (H.263)
Muxing mode                              : Packed bitstream
Codec ID                                 : XVID
Codec ID/Hint                            : XviD
Duration                                 : 1h 23mn
Bit rate                                 : 1 121 Kbps
Width                                    : 656 pixels
Height                                   : 368 pixels
Display aspect ratio                     : 16:9
Frame rate                               : 25.000 fps
Color space                              : YUV
Chroma subsampling                       : 4:2:0
Bit depth                                : 8 bits
Scan type                                : Progressive
Compression mode                         : Lossy
Bits/(Pixel*Frame)                       : 0.186
Stream size                              : 666 MiB (89%)
Writing library                          : XviD 1.2.1 (UTC 2008-12-04)

Audio
ID                                       : 1
Format                                   : MPEG Audio
Format version                           : Version 1
Format profile                           : Layer 3
Codec ID                                 : 55
Codec ID/Hint                            : MP3
Duration                                 : 1h 23mn
Bit rate mode                            : Constant
Bit rate                                 : 128 Kbps
Channel count                            : 2 channels
Sampling rate                            : 48.0 KHz
Compression mode                         : Lossy
Stream size                              : 76.0 MiB (10%)
Alignment                                : Aligned on interleaves
Interleave, duration                     : 40 ms (1.00 video frame)
Interleave, preload duration             : 504 ms
Writing library                          : LAME3.98r
Encoding settings                        : -m s -V 4 -q 2 -lowpass 17 -b 128



Релиз от:



   Похожие торренты   Торрент   Размер 
В этой теме нет новых непрочитанных сообщений. Распутин (2013) DVDRip

31 | 4

1.37 ГБ

В этой теме нет новых непрочитанных сообщений. Распутин (2013) DVDRip-AVC

5 | 2

1.48 ГБ

В этой теме нет новых непрочитанных сообщений. Распутин (2013) DVDRip от Generalfilm | КПК

13 | 2

374.46 МБ

В этой теме нет новых непрочитанных сообщений. Распутин (2013) DVD5 | Лицензия

13 | 3

3.83 ГБ

В этой теме нет новых непрочитанных сообщений. Распутин (2013) BDRip 1080p

48 | 8

6.52 ГБ

В этой теме нет новых непрочитанных сообщений. Распутин (2013) BDRip 720p

42 | 5

3.8 ГБ

В этой теме нет новых непрочитанных сообщений. Распутин / Raspoutine (2011) DVDRip | L1

1 | 2

1.46 ГБ




Вы не можете начинать темы
Вы не можете отвечать на сообщения
Вы не можете редактировать свои сообщения
Вы не можете удалять свои сообщения
Вы не можете добавлять вложения

Перейти:  
Для Мосгорсуда, Роскомнадзора и рекламодателей: mosgorsud-torrent[собачка]yandex.ru
 Вход
ppkBB3cker v.2 © 2008-2014 @ PPK
[ Time : 0.035s | 16 Queries | GZIP : Off ]

Торрент трекер RUTOR.IN, Не можете зайти на rutor.org? Какой новый адрес рутор? Какое зеркало рутор? Не работает rutor.org и зеркала? Тогда наш торрент специально для вас. Rutor.in неофициальное зеркало rutor. В случае если у Вас заблокирован rutor или вдруг Вы не можете на него зайти, то Вы без труда сможете скачать бесплатно и без рекламы последние новинки кино, игр, сериалов и прочего у нас, на Rutor.in. Не нужно использовать прокси, чтобы зайти на рутор, достаточно воспользоваться нашим ресурсом. Все новые фильмы, игры, сериалы, книги и музыка за 2013 и 2014 годы через торрент бесплатно. Скачивайте фильмы в хорошем качестве, игры для пк, xbox, playstation без регистрации. У нас вы найдете новые Зарубежные сериалы и Русские сериалы 2013, 2014, 2015 годов. Оставайтесь с нами, качайте любимые фильмы, игры, сериалы, книги и музыку.