img image001 image001 image001 image001 image001 image001 image001 image001 image001 image001 image001 image001 image001 image001 image001

Planets Sun Sun Sun
Статистика раздачи
Автор: PriZraK | Размер: 744.87 МБ | Добавлен: 15 фев 2014
Раздают: 13    Качают: 4
Скачать торрент
Скачать торрент
Описание торрента

СообщениеДобавлено: 15 фев 2014 


#77
Страна: СССР
Производство: Студия Горького
Жанр: мелодрама, комедия
Год выпуска: 1981
Продолжительность: 01:05:11

Перевод: не требуется
Оригинальная аудиодорожка: русский
Cубтитры: нет

Режиссёр: Виталий Фетисов, Владимир Грамматиков

В ролях:
Ольга Машная, Михаил Ефремов, Олег Табаков, Светлана Немоляева, Александр Пашутин, Лилия Захарова, Альфия Хабибулина, Игорь Штернберг, Владимир Грамматиков, Авангард Леонтьев, Татьяна Божок...

Описание:
Герой фильма уверен: настоящая любовь всегда подобна внезапной вспышке, озарению; не ошибается в любви только тот, кто доверяет своей интуиции. Вскоре ему, ученику выпускного класса, предоставляется шанс проверить эту теорию на практике.
Влюбившись в случайно встреченную на улице симпатичную сверстницу он решает, что это — судьба, что надо немедленно жениться и отделяться от родителей. К счастью, последствия «эксперимента» окажутся не слишком болезненными…





Исходник: DVD5 R5
Тип релиза: DVDRip
Контейнер: AVI

Видео: 720x352 (2.045:1), 25 fps, XviD ~ 1396 kbps avg, 0.220 bit/pixel
Аудио: 48 kHz, Dolby Digital AC3 2.0, 192 kbps
Общее
Полное имя : Vse.naoborot.1981.DVDRip_[New-team]_by_AVP_Studio.avi
Формат : AVI
Формат/Информация : Audio Video Interleave
Размер файла : 745 Мбайт
Продолжительность : 1 ч. 5 м.
Общий поток : 1597 Кбит/сек
Программа кодирования : VirtualDubModRus 1.5.10.2 (build 2542/release)
Библиотека кодирования : VirtualDubMod build 2542/release

Видео
Идентификатор : 0
Формат : MPEG-4 Visual
Профиль формата : Advanced Simple@L5
Параметр BVOP формата : 1
Параметр QPel формата : Нет
Параметр GMC формата : Без точки перехода
Параметр матрицы формата : Выборочная
Идентификатор кодека : XVID
Идентификатор кодека/Подсказка : XviD
Продолжительность : 1 ч. 5 м.
Битрейт : 1396 Кбит/сек
Ширина : 720 пикселей
Высота : 352 пикселя
Соотношение сторон : 2,045
Частота кадров : 25,000 кадров/сек
Цветовое пространство : YUV
Субдискретизация насыщенности : 4:2:0
Битовая глубина : 8 бит
Тип развёртки : Прогрессивная
Метод сжатия : С потерями
Бит/(Пиксели*Кадры) : 0.220
Размер потока : 651 Мбайт (87%)
Библиотека кодирования : XviD 73

Аудио
Идентификатор : 1
Формат : AC-3
Формат/Информация : Audio Coding 3
Расширение режима : CM (complete main)
Идентификатор кодека : 2000
Продолжительность : 1 ч. 5 м.
Вид битрейта : Постоянный
Битрейт : 192 Кбит/сек
Каналы : 2 канала
Расположение каналов : Front: L R
Частота : 48,0 КГц
Битовая глубина : 16 бит
Метод сжатия : С потерями
Размер потока : 89,5 Мбайт (12%)
Выравнивание : Разделение по промежуткам
Продолжительность промежутка : 40 мс. (1,00 видеокадр)
Время предзагрузки промежутка : 500 мс



Злой мальчик (1974) • Тайфун, фас! (1976) • Усатый нянь (1977) • Шла собака по роялю (1978) • Руки вверх! (1981) • Всё наоборот (1981) • Звезда и смерть Хоакина Мурьеты (1982) • Вера. Надежда. Любовь (1984) • Мио, мой Мио (1987) • Сестрички Либерти (1990) • Сказка о купеческой дочери и таинственном цветке (1991) • Осенние соблазны (1993) • Трибунал (1995) • Маленькая принцесса (1997) • Привет от Чарли-трубача (1998) • Аз и Ферт (2001) • Сибирочка (2003) • Горыныч и Виктория (2005) • Тайна сибирской княжны (2005)



   Похожие торренты   Торрент   Размер 
В этой теме нет новых непрочитанных сообщений. Всё наоборот (1981) DVDRip-AVC от New-Team

15 | 2

744.64 МБ

В этой теме нет новых непрочитанных сообщений. Наоборот / Всё наоборот / Vice Versa (1988) WEB-DLRip от New-Team

29 | 8

1.46 ГБ

В этой теме нет новых непрочитанных сообщений. Все наоборот (1981) DVDRip

28 | 3

1.09 ГБ

В этой теме нет новых непрочитанных сообщений. Туз / Asso (1981) DVDRip-AVC от New-Team

85 | 11

1.46 ГБ

В этой теме нет новых непрочитанных сообщений. Туз / Asso (1981) DVDRip от New-Team

8 | 3

1.46 ГБ

В этой теме нет новых непрочитанных сообщений. Туз / Asso (1981) DVDRip от New-Team

5 | 4

744.03 МБ

В этой теме нет новых непрочитанных сообщений. Шестой (1981) DVDRip от New-Team

173 | 10

1.46 ГБ




Вы не можете начинать темы
Вы не можете отвечать на сообщения
Вы не можете редактировать свои сообщения
Вы не можете удалять свои сообщения
Вы не можете добавлять вложения

Перейти:  
Для Мосгорсуда, Роскомнадзора и рекламодателей: mosgorsud-torrent[собачка]yandex.ru
 Вход
ppkBB3cker v.2 © 2008-2014 @ PPK
[ Time : 0.025s | 14 Queries | GZIP : Off ]

Торрент трекер RUTOR.IN, Не можете зайти на rutor.org? Какой новый адрес рутор? Какое зеркало рутор? Не работает rutor.org и зеркала? Тогда наш торрент специально для вас. Rutor.in неофициальное зеркало rutor. В случае если у Вас заблокирован rutor или вдруг Вы не можете на него зайти, то Вы без труда сможете скачать бесплатно и без рекламы последние новинки кино, игр, сериалов и прочего у нас, на Rutor.in. Не нужно использовать прокси, чтобы зайти на рутор, достаточно воспользоваться нашим ресурсом. Все новые фильмы, игры, сериалы, книги и музыка за 2013 и 2014 годы через торрент бесплатно. Скачивайте фильмы в хорошем качестве, игры для пк, xbox, playstation без регистрации. У нас вы найдете новые Зарубежные сериалы и Русские сериалы 2013, 2014, 2015 годов. Оставайтесь с нами, качайте любимые фильмы, игры, сериалы, книги и музыку.