img image001 image001 image001 image001 image001 image001 image001 image001 image001 image001 image001 image001 image001 image001 image001

Planets Sun Sun Sun
Статистика раздачи
Автор: PriZraK | Размер: 744.64 МБ | Добавлен: 15 фев 2014
Раздают: 16    Качают: 3
Скачать торрент
Скачать торрент
Описание торрента

СообщениеДобавлено: 15 фев 2014 


#77
Страна: СССР
Производство: Студия Горького
Жанр: мелодрама, комедия
Год выпуска: 1981
Продолжительность: 01:05:11

Перевод: не требуется
Оригинальная аудиодорожка: русский
Cубтитры: нет

Режиссёр: Виталий Фетисов, Владимир Грамматиков

В ролях:
Ольга Машная, Михаил Ефремов, Олег Табаков, Светлана Немоляева, Александр Пашутин, Лилия Захарова, Альфия Хабибулина, Игорь Штернберг, Владимир Грамматиков, Авангард Леонтьев, Татьяна Божок...

Описание:
Герой фильма уверен: настоящая любовь всегда подобна внезапной вспышке, озарению; не ошибается в любви только тот, кто доверяет своей интуиции. Вскоре ему, ученику выпускного класса, предоставляется шанс проверить эту теорию на практике.
Влюбившись в случайно встреченную на улице симпатичную сверстницу он решает, что это — судьба, что надо немедленно жениться и отделяться от родителей. К счастью, последствия «эксперимента» окажутся не слишком болезненными…





Исходник: DVD5 R5
Тип релиза: DVDRip-AVC
Контейнер: MKV

Видео: 720->764x374 (2,000:1), 25 fps, H264 ~ 1403 kbps avg, 0.208 bit/pixel
Аудио: 48 kHz, Dolby Digital AC3 2.0, 192 kbps
Общее
Полное имя : Vse.naoborot.1981.DVDRip-AVC_[New-team]_by_AVP_Studio.mkv
Формат : Matroska
Версия формата : Version 2
Размер файла : 745 Мбайт
Продолжительность : 1 ч. 5 м.
Общий поток : 1597 Кбит/сек
Дата кодирования : UTC 2013-12-13 13:53:25
Программа кодирования : mkvmerge v6.1.0 ('Old Devil') built on Mar 4 2013 09:10:42
Библиотека кодирования : libebml v1.3.0 + libmatroska v1.4.0

Видео
Идентификатор : 1
Формат : AVC
Формат/Информация : Advanced Video Codec
Профиль формата : High@L4.1
Параметр CABAC формата : Да
Параметр ReFrames формата : 6 кадров
Идентификатор кодека : V_MPEG4/ISO/AVC
Продолжительность : 1 ч. 5 м.
Битрейт : 1403 Кбит/сек
Ширина : 720 пикселей
Высота : 374 пикселя
Соотношение сторон : 2,000
Частота кадров : 25,000 кадров/сек
Цветовое пространство : YUV
Субдискретизация насыщенности : 4:2:0
Битовая глубина : 8 бит
Тип развёртки : Прогрессивная
Бит/(Пиксели*Кадры) : 0.208
Размер потока : 640 Мбайт (86%)
Библиотека кодирования : x264 core 138 r2356 a1d3d17
Настройки программы : cabac=1 / ref=6 / deblock=1:-2:-1 / analyse=0x3:0x113 / me=umh / subme=10 / psy=1 / psy_rd=1.00:0.05 / mixed_ref=1 / me_range=32 / chroma_me=1 / trellis=2 / 8x8dct=1 / cqm=0 / deadzone=21,11 / fast_pskip=0 / chroma_qp_offset=-3 / threads=3 / lookahead_threads=1 / sliced_threads=0 / nr=0 / decimate=0 / interlaced=0 / bluray_compat=0 / constrained_intra=0 / bframes=8 / b_pyramid=2 / b_adapt=2 / b_bias=0 / direct=3 / weightb=1 / open_gop=0 / weightp=2 / keyint=250 / keyint_min=25 / scenecut=40 / intra_refresh=0 / rc=2pass / mbtree=0 / bitrate=1403 / ratetol=1.0 / qcomp=0.60 / qpmin=0 / qpmax=69 / qpstep=4 / cplxblur=20.0 / qblur=0.5 / ip_ratio=1.40 / pb_ratio=1.30 / aq=1:1.00
Default : Да
Forced : Нет

Аудио
Идентификатор : 2
Формат : AC-3
Формат/Информация : Audio Coding 3
Расширение режима : CM (complete main)
Идентификатор кодека : A_AC3
Продолжительность : 1 ч. 5 м.
Вид битрейта : Постоянный
Битрейт : 192 Кбит/сек
Каналы : 2 канала
Расположение каналов : Front: L R
Частота : 48,0 КГц
Битовая глубина : 16 бит
Метод сжатия : С потерями
Размер потока : 89,5 Мбайт (12%)
Default : Да
Forced : Нет



Злой мальчик (1974) • Тайфун, фас! (1976) • Усатый нянь (1977) • Шла собака по роялю (1978) • Руки вверх! (1981) • Всё наоборот (1981) • Звезда и смерть Хоакина Мурьеты (1982) • Вера. Надежда. Любовь (1984) • Мио, мой Мио (1987) • Сестрички Либерти (1990) • Сказка о купеческой дочери и таинственном цветке (1991) • Осенние соблазны (1993) • Трибунал (1995) • Маленькая принцесса (1997) • Привет от Чарли-трубача (1998) • Аз и Ферт (2001) • Сибирочка (2003) • Горыныч и Виктория (2005) • Тайна сибирской княжны (2005)



   Похожие торренты   Торрент   Размер 
В этой теме нет новых непрочитанных сообщений. Всё наоборот (1981) DVDRip от New-Team

13 | 4

744.87 МБ

В этой теме нет новых непрочитанных сообщений. Наоборот / Всё наоборот / Vice Versa (1988) WEB-DLRip от New-Team

19 | 6

1.46 ГБ

В этой теме нет новых непрочитанных сообщений. Все наоборот (1981) DVDRip

28 | 3

1.09 ГБ

В этой теме нет новых непрочитанных сообщений. Шестой (1981) DVDRip-AVC от New-Team

87 | 7

1.46 ГБ

В этой теме нет новых непрочитанных сообщений. Туз / Asso (1981) DVDRip от New-Team

9 | 4

744.03 МБ

В этой теме нет новых непрочитанных сообщений. Шестой (1981) DVDRip от New-Team

171 | 8

1.46 ГБ

В этой теме нет новых непрочитанных сообщений. Туз / Asso (1981) DVDRip от New-Team

10 | 3

1.46 ГБ




Вы не можете начинать темы
Вы не можете отвечать на сообщения
Вы не можете редактировать свои сообщения
Вы не можете удалять свои сообщения
Вы не можете добавлять вложения

Перейти:  
Для Мосгорсуда, Роскомнадзора и рекламодателей: mosgorsud-torrent[собачка]yandex.ru
cron
 Вход
ppkBB3cker v.2 © 2008-2014 @ PPK
[ Time : 0.030s | 15 Queries | GZIP : Off ]

cron