img image001 image001 image001 image001 image001 image001 image001 image001 image001 image001 image001 image001 image001 image001 image001

Planets Sun Sun Sun
Статистика раздачи
Автор: PriZraK | Размер: 4.98 ГБ | Добавлен: 15 фев 2014
Раздают: 29    Качают: 17
Скачать торрент
Скачать торрент
Описание торрента

СообщениеДобавлено: 15 фев 2014 




Страна: СССР
Жанр: драма, мелодрама, комедия

Год выпуска: 1975

Продолжительность: 01:31:57


Перевод: Не требуется

Режиссер: Георгий Данелия

В ролях: Леонид Куравлёв (Борщов Афанасий Николаевич (Афоня)), Евгения Симонова (Катя Снегирёва), Евгений Леонов (Коля), Борислав Брондуков (Федул), Валентина Талызина (Вострякова), Владимир Басов (Владимир Иванович Беликов), Николай Парфёнов (Борис Петрович Фомин), Готлиб Ронинсон («астроном» в халате), Нина Русланова (Тамара), Раиса Куркина (тётя Фрося), Нина Маслова (Елена), Алексей Ванин (Иван Орлов, муж Елены)


Описание: Весело и беззаботно жил слесарь-сантехник Афанасий. Не гнушался левыми заработками, любил выпить, поволочиться за девушками. Так проходил день за днем, но однажды... О том, что случилось с Афоней, рассказывает фильм признанного мастера комедии Георгия Данелии.





Качество: BDRip 1080p
Контейнер: MKV
Исходник: BD
Видео: AVC, 1488x1080 (1.378), 7300 kbps, 23,976 fps, 0,189 bpp
Аудио: русский / AC3 / 5.1 / 48 kHz / 448 kbps / 16 bit ||
Навигация по главам: есть



General
Unique ID : 177626682961435519551802172993902089306 (0x85A1A79E990AAD4B975D73E8178E145A)
Complete name : E:BDAfonia.1975.BDRip.1080p.[New-Team].mkv
Format : Matroska
Format version : Version 4 / Version 2
File size : 4.98 GiB
Duration : 1h 31mn
Overall bit rate : 7 750 Kbps
Encoded date : UTC 2013-12-13 10:03:30
Writing application : mkvmerge v6.3.0 ('You can't stop me!') built on Jun 28 2013 20:09:41
Writing library : libebml v1.3.0 + libmatroska v1.4.0
Attachment : Yes

Video
ID : 1
Format : AVC
Format/Info : Advanced Video Codec
Format profile : High@L4.1
Format settings, CABAC : Yes
Format settings, ReFrames : 4 frames
Codec ID : V_MPEG4/ISO/AVC
Duration : 1h 31mn
Bit rate : 7 300 Kbps
Width : 1 488 pixels
Height : 1 080 pixels
Display aspect ratio : 1.378
Frame rate : 23.976 fps
Color space : YUV
Chroma subsampling : 4:2:0
Bit depth : 8 bits
Scan type : Progressive
Bits/(Pixel*Frame) : 0.189
Stream size : 4.59 GiB (92%)
Writing library : x264 core 132 r2310 76a5c3a
Encoding settings : cabac=1 / ref=4 / deblock=1:-2:-2 / analyse=0x3:0x113 / me=umh / subme=10 / psy=1 / psy_rd=1.00:0.15 / mixed_ref=1 / me_range=32 / chroma_me=1 / trellis=2 / 8x8dct=1 / cqm=0 / deadzone=21,11 / fast_pskip=0 / chroma_qp_offset=-3 / threads=3 / lookahead_threads=1 / sliced_threads=0 / nr=0 / decimate=0 / interlaced=0 / bluray_compat=0 / constrained_intra=0 / bframes=9 / b_pyramid=2 / b_adapt=2 / b_bias=0 / direct=3 / weightb=1 / open_gop=0 / weightp=2 / keyint=240 / keyint_min=24 / scenecut=40 / intra_refresh=0 / rc_lookahead=60 / rc=2pass / mbtree=0 / bitrate=7300 / ratetol=1.0 / qcomp=0.60 / qpmin=0 / qpmax=69 / qpstep=4 / cplxblur=20.0 / qblur=0.5 / vbv_maxrate=40000 / vbv_bufsize=30000 / nal_hrd=none / ip_ratio=1.40 / pb_ratio=1.30 / aq=1:0.80
Default : Yes
Forced : No

Audio
ID : 2
Format : AC-3
Format/Info : Audio Coding 3
Mode extension : CM (complete main)
Codec ID : A_AC3
Duration : 1h 31mn
Bit rate mode : Constant
Bit rate : 448 Kbps
Channel(s) : 6 channels
Channel positions : Front: L C R, Side: L R, LFE
Sampling rate : 48.0 KHz
Bit depth : 16 bits
Compression mode : Lossy
Stream size : 295 MiB (6%)
Title : Оригинал
Language : Russian
Default : Yes
Forced : No

Menu
00:00:00.000 : en:Chapter 1
00:07:11.431 : en:Chapter 2
00:11:12.672 : en:Chapter 3
00:19:32.171 : en:Chapter 4
00:24:03.066 : en:Chapter 5
00:31:43.902 : en:Chapter 6
00:42:34.552 : en:Chapter 7
00:51:58.615 : en:Chapter 8
01:00:26.622 : en:Chapter 9
01:09:38.174 : en:Chapter 10
01:15:31.610 : en:Chapter 11
01:23:30.130 : en:Chapter 12


Релиз от:



   Похожие торренты   Торрент   Размер 
В этой теме нет новых непрочитанных сообщений. Афоня (1975) BDRip от New-Team

398 | 17

1.45 ГБ

В этой теме нет новых непрочитанных сообщений. Афоня (1975) BDRip от New-Team

464 | 68

744.67 МБ

В этой теме нет новых непрочитанных сообщений. Афоня (1975) BDRip 1080p

20 | 5

6.33 ГБ

В этой теме нет новых непрочитанных сообщений. Афоня (1975) BDRip 1080p

126 | 22

7.76 ГБ

В этой теме нет новых непрочитанных сообщений. Афоня (1975) BDRip-HEVC 1080p от FREEISLAND

14 | 17

4.12 ГБ

В этой теме нет новых непрочитанных сообщений. Афоня (1975) Blu-Ray 1080p

213 | 6

22 ГБ

В этой теме нет новых непрочитанных сообщений. Афоня (1975) Blu-Ray Remux 1080p

21 | 9

14.91 ГБ




Вы не можете начинать темы
Вы не можете отвечать на сообщения
Вы не можете редактировать свои сообщения
Вы не можете удалять свои сообщения
Вы не можете добавлять вложения

Перейти:  
Для Мосгорсуда, Роскомнадзора и рекламодателей: mosgorsud-torrent[собачка]yandex.ru
 Вход
ppkBB3cker v.2 © 2008-2014 @ PPK
[ Time : 0.023s | 14 Queries | GZIP : Off ]

Торрент трекер RUTOR.IN, Не можете зайти на rutor.org? Какой новый адрес рутор? Какое зеркало рутор? Не работает rutor.org и зеркала? Тогда наш торрент специально для вас. Rutor.in неофициальное зеркало rutor. В случае если у Вас заблокирован rutor или вдруг Вы не можете на него зайти, то Вы без труда сможете скачать бесплатно и без рекламы последние новинки кино, игр, сериалов и прочего у нас, на Rutor.in. Не нужно использовать прокси, чтобы зайти на рутор, достаточно воспользоваться нашим ресурсом. Все новые фильмы, игры, сериалы, книги и музыка за 2013 и 2014 годы через торрент бесплатно. Скачивайте фильмы в хорошем качестве, игры для пк, xbox, playstation без регистрации. У нас вы найдете новые Зарубежные сериалы и Русские сериалы 2013, 2014, 2015 годов. Оставайтесь с нами, качайте любимые фильмы, игры, сериалы, книги и музыку.