img image001 image001 image001 image001 image001 image001 image001 image001 image001 image001 image001 image001 image001 image001 image001

Planets Sun Sun Sun
Статистика раздачи
Автор: PriZraK | Размер: 744.67 МБ | Добавлен: 15 фев 2014
Раздают: 458    Качают: 65
Скачать торрент
Скачать торрент
Описание торрента

СообщениеДобавлено: 15 фев 2014 




Страна: СССР
Жанр: драма, мелодрама, комедия

Год выпуска: 1975

Продолжительность: 01:31:57


Перевод: Не требуется

Режиссер: Георгий Данелия

В ролях: Леонид Куравлёв (Борщов Афанасий Николаевич (Афоня)), Евгения Симонова (Катя Снегирёва), Евгений Леонов (Коля), Борислав Брондуков (Федул), Валентина Талызина (Вострякова), Владимир Басов (Владимир Иванович Беликов), Николай Парфёнов (Борис Петрович Фомин), Готлиб Ронинсон («астроном» в халате), Нина Русланова (Тамара), Раиса Куркина (тётя Фрося), Нина Маслова (Елена), Алексей Ванин (Иван Орлов, муж Елены)


Описание: Весело и беззаботно жил слесарь-сантехник Афанасий. Не гнушался левыми заработками, любил выпить, поволочиться за девушками. Так проходил день за днем, но однажды... О том, что случилось с Афоней, рассказывает фильм признанного мастера комедии Георгия Данелии.






Качество: BDRip | SAMPLE
Контейнер: AVI
Исходник: BD
Видео: XviD, 704x512 (1.375), 994 kbps, 23,976 fps, 0,115 bpp
Аудио: MP3 / 2.0 / 48 kHz / 128 kbps /



General
Complete name : E:My_ripAfonia.1975.BDRip745.[New-Team].avi
Format : AVI
Format/Info : Audio Video Interleave
File size : 745 MiB
Duration : 1h 31mn
Overall bit rate : 1 132 Kbps
Writing application : VirtualDubMod 1.5.10.3 | www.virtualdub-fr.org || (build 2550/release)
Writing library : VirtualDubMod build 2550/release

Video
ID : 0
Format : MPEG-4 Visual
Format profile : Advanced Simple@L5
Format settings, BVOP : 2
Format settings, QPel : No
Format settings, GMC : No warppoints
Format settings, Matrix : Custom
Muxing mode : Packed bitstream
Codec ID : XVID
Codec ID/Hint : XviD
Duration : 1h 31mn
Bit rate : 995 Kbps
Width : 704 pixels
Height : 512 pixels
Display aspect ratio : 1.375
Frame rate : 23.976 fps
Color space : YUV
Chroma subsampling : 4:2:0
Bit depth : 8 bits
Scan type : Progressive
Compression mode : Lossy
Bits/(Pixel*Frame) : 0.115
Stream size : 654 MiB (88%)
Writing library : XviD 65

Audio
ID : 1
Format : MPEG Audio
Format version : Version 1
Format profile : Layer 3
Mode : Joint stereo
Mode extension : MS Stereo
Codec ID : 55
Codec ID/Hint : MP3
Duration : 1h 31mn
Bit rate mode : Constant
Bit rate : 128 Kbps
Channel(s) : 2 channels
Sampling rate : 48.0 KHz
Compression mode : Lossy
Stream size : 84.2 MiB (11%)
Alignment : Aligned on interleaves
Interleave, duration : 42 ms (1.00 video frame)
Interleave, preload duration : 504 ms
Writing library : LAME3.99r
Encoding settings : -m j -V 4 -q 2 -lowpass 17 -b 128


Релиз от:



   Похожие торренты   Торрент   Размер 
В этой теме нет новых непрочитанных сообщений. Афоня (1975) BDRip от New-Team

398 | 16

1.45 ГБ

В этой теме нет новых непрочитанных сообщений. Афоня (1975) BDRip 1080p от New-Team

32 | 16

4.98 ГБ

В этой теме нет новых непрочитанных сообщений. Афоня (1975) BDRip

710 | 36

1.46 ГБ

В этой теме нет новых непрочитанных сообщений. Афоня (1975) BDRip от HQCLUB

207 | 18

1.45 ГБ

В этой теме нет новых непрочитанных сообщений. Афоня (1975) BDRip 1080p

20 | 5

6.33 ГБ

В этой теме нет новых непрочитанных сообщений. Афоня (1975) BDRip 1080p

126 | 22

7.76 ГБ

В этой теме нет новых непрочитанных сообщений. Афоня (1975) BDRip от MediaClub | КПК

67 | 11

410.91 МБ




Вы не можете начинать темы
Вы не можете отвечать на сообщения
Вы не можете редактировать свои сообщения
Вы не можете удалять свои сообщения
Вы не можете добавлять вложения

Перейти:  
Для Мосгорсуда, Роскомнадзора и рекламодателей: mosgorsud-torrent[собачка]yandex.ru
 Вход
ppkBB3cker v.2 © 2008-2014 @ PPK
[ Time : 0.068s | 15 Queries | GZIP : Off ]

Торрент трекер RUTOR.IN, Не можете зайти на rutor.org? Какой новый адрес рутор? Какое зеркало рутор? Не работает rutor.org и зеркала? Тогда наш торрент специально для вас. Rutor.in неофициальное зеркало rutor. В случае если у Вас заблокирован rutor или вдруг Вы не можете на него зайти, то Вы без труда сможете скачать бесплатно и без рекламы последние новинки кино, игр, сериалов и прочего у нас, на Rutor.in. Не нужно использовать прокси, чтобы зайти на рутор, достаточно воспользоваться нашим ресурсом. Все новые фильмы, игры, сериалы, книги и музыка за 2013 и 2014 годы через торрент бесплатно. Скачивайте фильмы в хорошем качестве, игры для пк, xbox, playstation без регистрации. У нас вы найдете новые Зарубежные сериалы и Русские сериалы 2013, 2014, 2015 годов. Оставайтесь с нами, качайте любимые фильмы, игры, сериалы, книги и музыку.
cron