img image001 image001 image001 image001 image001 image001 image001 image001 image001 image001 image001 image001 image001 image001 image001

Planets Sun Sun Sun
Статистика раздачи
Автор: PriZraK | Размер: 4.36 ГБ | Добавлен: 15 фев 2014
Раздают: 467    Качают: 14
Скачать торрент
Скачать торрент
Описание торрента

СообщениеДобавлено: 15 фев 2014 




Информация о фильме
Название: Чужая
Год выхода: 2010
Жанр: криминальная драма
Режиссер: Антон Борматов
В ролях: Наталья Романычева, Евгений Ткачук, Кирилл Полухин, Анатолий Отраднов, Александр Голубков

О фильме:
Начало 90-х на Украине. Четырём бойцам приказывают привезти из Чехии сестру арестованного убийцы по кличке "Чужая".


Страна: Россия
Студия: Профит, Красный Квадрат Кино
Продолжительность: 01:48:55

Файл
Кодек: MKV, H.264 2pass
Качество: DVDRip
Видео: 1024x552, 5359 kbps, 25 fps
Звук: AC-3, 384 kbps, stereo
Субтитры: отсутствуют



General
Unique ID : 188246243029627584915408342762740444208 (0x8D9EE85AE495763FA05EBAB5CA2AEC30)
Complete name : Чужая.mkv
Format : Matroska
File size : 4.36 GiB
Duration : 1h 48mn
Overall bit rate : 5 729 Kbps
Movie name : Чужая (2010)
Encoded date : UTC 2013-12-08 13:28:28
Writing application : mkvmerge v6.3.0 ('You can't stop me!') built on Jun 28 2013 20:09:41
Writing library : libebml v1.3.0 + libmatroska v1.4.0

Video
ID : 1
Format : AVC
Format/Info : Advanced Video Codec
Format profile : High@L4.1
Format settings, CABAC : Yes
Format settings, ReFrames : 4 frames
Codec ID : V_MPEG4/ISO/AVC
Duration : 1h 48mn
Bit rate : 5 359 Kbps
Width : 1 024 pixels
Height : 552 pixels
Display aspect ratio : 1.855
Frame rate : 25.000 fps
Color space : YUV
Chroma subsampling : 4:2:0
Bit depth : 8 bits
Scan type : Progressive
Bits/(Pixel*Frame) : 0.379
Stream size : 3.98 GiB (91%)
Title : Чужая (2010)
Writing library : x264 core 130 r2273 b3065e6
Encoding settings : cabac=1 / ref=4 / deblock=1:-1:-2 / analyse=0x3:0x133 / me=esa / subme=9 / psy=1 / psy_rd=1.00:0.10 / mixed_ref=0 / me_range=32 / chroma_me=0 / trellis=2 / 8x8dct=1 / cqm=0 / deadzone=21,11 / fast_pskip=0 / chroma_qp_offset=-3 / threads=4 / lookahead_threads=1 / sliced_threads=0 / nr=0 / decimate=0 / interlaced=0 / bluray_compat=0 / constrained_intra=0 / bframes=4 / b_pyramid=0 / b_adapt=2 / b_bias=0 / direct=2 / weightb=1 / open_gop=1 / weightp=2 / keyint=infinite / keyint_min=25 / scenecut=40 / intra_refresh=0 / rc_lookahead=12 / rc=2pass / mbtree=1 / bitrate=5359 / ratetol=1.0 / qcomp=0.67 / qpmin=16 / qpmax=32 / qpstep=8 / cplxblur=20.0 / qblur=0.5 / ip_ratio=1.20 / aq=1:1.00
Language : Russian

Audio
ID : 2
Format : AC-3
Format/Info : Audio Coding 3
Mode extension : CM (complete main)
Codec ID : A_AC3
Duration : 1h 48mn
Bit rate mode : Constant
Bit rate : 384 Kbps
Channel(s) : 2 channels
Channel positions : Front: L R
Sampling rate : 48.0 KHz
Bit depth : 16 bits
Compression mode : Lossy
Stream size : 299 MiB (7%)
Title : Оригинальная (remastered)
Language : Russian

Релиз от: Da!ver



   Похожие торренты   Торрент   Размер 
В этой теме нет новых непрочитанных сообщений. Чужая (2010) DVDRip

650 | 24

1.37 ГБ

В этой теме нет новых непрочитанных сообщений. Чужая (2010) DVDRip

63 | 11

702.86 МБ

В этой теме нет новых непрочитанных сообщений. Чужая (2010) DVDRip-AVC

550 | 23

1.79 ГБ

В этой теме нет новых непрочитанных сообщений. Чужая (2010) DVD9

10 | 9

5.06 ГБ

В этой теме нет новых непрочитанных сообщений. Чужая (2010) DVD5 от vadi

191 | 5

4.36 ГБ

В этой теме нет новых непрочитанных сообщений. Чужая / Die Fremde (2010) BDRip-AVC

4 | 3

2.05 ГБ

В этой теме нет новых непрочитанных сообщений. Чужая / Die Fremde (2010) BDRip 720p

1 | 2

4.34 ГБ




Вы не можете начинать темы
Вы не можете отвечать на сообщения
Вы не можете редактировать свои сообщения
Вы не можете удалять свои сообщения
Вы не можете добавлять вложения

Перейти:  
Для Мосгорсуда, Роскомнадзора и рекламодателей: mosgorsud-torrent[собачка]yandex.ru
 Вход
ppkBB3cker v.2 © 2008-2014 @ PPK
[ Time : 0.025s | 14 Queries | GZIP : Off ]

Торрент трекер RUTOR.IN, Не можете зайти на rutor.org? Какой новый адрес рутор? Какое зеркало рутор? Не работает rutor.org и зеркала? Тогда наш торрент специально для вас. Rutor.in неофициальное зеркало rutor. В случае если у Вас заблокирован rutor или вдруг Вы не можете на него зайти, то Вы без труда сможете скачать бесплатно и без рекламы последние новинки кино, игр, сериалов и прочего у нас, на Rutor.in. Не нужно использовать прокси, чтобы зайти на рутор, достаточно воспользоваться нашим ресурсом. Все новые фильмы, игры, сериалы, книги и музыка за 2013 и 2014 годы через торрент бесплатно. Скачивайте фильмы в хорошем качестве, игры для пк, xbox, playstation без регистрации. У нас вы найдете новые Зарубежные сериалы и Русские сериалы 2013, 2014, 2015 годов. Оставайтесь с нами, качайте любимые фильмы, игры, сериалы, книги и музыку.