img image001 image001 image001 image001 image001 image001 image001 image001 image001 image001 image001 image001 image001 image001 image001

Planets Sun Sun Sun
Статистика раздачи
Автор: PriZraK | Размер: 1.45 ГБ | Добавлен: 15 фев 2014
Раздают: 130    Качают: 19
Скачать торрент
Скачать торрент
Описание торрента

СообщениеДобавлено: 15 фев 2014 




Страна: СССР
Жанр: мюзикл, мелодрама, комедия

Год выпуска: 1956

Продолжительность: 01:15:31


Перевод: Не требуется

Режиссер: Эльдар Рязанов

В ролях: Игорь Ильинский (Серафим Иванович Огурцов, и.о. директора Дома культуры), Людмила Гурченко (Леночка Крылова), Юрий Белов (Гриша Кольцов), Георгий Куликов (Серёжа Усиков), Сергей Филиппов (лектор Никадилов), Ольга Власова (Аделаида Кузьминична Ромашкина), Андрей Тутышкин (Фёдор Петрович Миронов, бухгалтер), Тамара Носова (Тося Бурыгина, верная и исполнительная секретарша С.И.Огурцова), Геннадий Юдин (дирижёр оркестра), Владимир Зельдин (Николаев, клоун Топ), Борис Петкер (Сидоров, клоун Тип), Юрий Гусаков (чечёточник)


Описание: Веселая победа над теперь уже вовсе не страшным дураком бюрократом милого коллектива во главе со стройной девушкой. Из картины Рязанова так и рвется наружу радость освобождения.






Качество: BDRip | sample
Контейнер: AVI
Исходник: BD
Видео: XviD, 704x512 (1.375), 2293 kbps, 23,976 fps, 0,265 bpp
Аудио: AC3 / 5.1 / 48 kHz / 448 kbps / 16 bit



General
Complete name : E:My_ripKarnavalnaya.noch.1956.BDRip.[New-Team].avi
Format : AVI
Format/Info : Audio Video Interleave
File size : 1.45 GiB
Duration : 1h 15mn
Overall bit rate : 2 751 Kbps
Writing application : VirtualDubMod 1.5.10.3 | www.virtualdub-fr.org || (build 2550/release)
Writing library : VirtualDubMod build 2550/release

Video
ID : 0
Format : MPEG-4 Visual
Format profile : Advanced Simple@L5
Format settings, BVOP : 2
Format settings, QPel : No
Format settings, GMC : No warppoints
Format settings, Matrix : Custom
Muxing mode : Packed bitstream
Codec ID : XVID
Codec ID/Hint : XviD
Duration : 1h 15mn
Bit rate : 2 293 Kbps
Width : 704 pixels
Height : 512 pixels
Display aspect ratio : 1.375
Frame rate : 23.976 fps
Color space : YUV
Chroma subsampling : 4:2:0
Bit depth : 8 bits
Scan type : Progressive
Compression mode : Lossy
Bits/(Pixel*Frame) : 0.265
Stream size : 1.21 GiB (83%)
Writing library : XviD 65

Audio
ID : 1
Format : AC-3
Format/Info : Audio Coding 3
Mode extension : CM (complete main)
Codec ID : 2000
Duration : 1h 15mn
Bit rate mode : Constant
Bit rate : 448 Kbps
Channel(s) : 6 channels
Channel positions : Front: L C R, Side: L R, LFE
Sampling rate : 48.0 KHz
Bit depth : 16 bits
Compression mode : Lossy
Stream size : 242 MiB (16%)
Alignment : Split accross interleaves
Interleave, duration : 42 ms (1.00 video frame)
Interleave, preload duration : 500 ms


Релиз от:



   Похожие торренты   Торрент   Размер 
В этой теме нет новых непрочитанных сообщений. Карнавальная ночь (1956) BDRip от New-Team

29 | 13

743.85 МБ

В этой теме нет новых непрочитанных сообщений. Карнавальная ночь (1956) BDRip-AVC от New-Team

22 | 4

1.09 ГБ

В этой теме нет новых непрочитанных сообщений. Карнавальная ночь (1956) BDRip 1080p от New-Team

13 | 4

4.37 ГБ

В этой теме нет новых непрочитанных сообщений. Карнавальная ночь (1956) BDRip-AVC от MediaClub

338 | 37

1.66 ГБ

В этой теме нет новых непрочитанных сообщений. Карнавальная ночь (1956) BDRip от HQCLUB

370 | 14

1.45 ГБ

В этой теме нет новых непрочитанных сообщений. Карнавальная ночь (1956) BDRip 1080p

227 | 15

7.76 ГБ

В этой теме нет новых непрочитанных сообщений. Карнавальная ночь (1956) BDRip 720p от Leonardo and Scarabey | Лицензия

258 | 28

2.78 ГБ




Вы не можете начинать темы
Вы не можете отвечать на сообщения
Вы не можете редактировать свои сообщения
Вы не можете удалять свои сообщения
Вы не можете добавлять вложения

Перейти:  
Для Мосгорсуда, Роскомнадзора и рекламодателей: mosgorsud-torrent[собачка]yandex.ru
 Вход
ppkBB3cker v.2 © 2008-2014 @ PPK
[ Time : 0.018s | 14 Queries | GZIP : On ]

Торрент трекер RUTOR.IN, Не можете зайти на rutor.org? Какой новый адрес рутор? Какое зеркало рутор? Не работает rutor.org и зеркала? Тогда наш торрент специально для вас. Rutor.in неофициальное зеркало rutor. В случае если у Вас заблокирован rutor или вдруг Вы не можете на него зайти, то Вы без труда сможете скачать бесплатно и без рекламы последние новинки кино, игр, сериалов и прочего у нас, на Rutor.in. Не нужно использовать прокси, чтобы зайти на рутор, достаточно воспользоваться нашим ресурсом. Все новые фильмы, игры, сериалы, книги и музыка за 2013 и 2014 годы через торрент бесплатно. Скачивайте фильмы в хорошем качестве, игры для пк, xbox, playstation без регистрации. У нас вы найдете новые Зарубежные сериалы и Русские сериалы 2013, 2014, 2015 годов. Оставайтесь с нами, качайте любимые фильмы, игры, сериалы, книги и музыку.