img image001 image001 image001 image001 image001 image001 image001 image001 image001 image001 image001 image001 image001 image001 image001

Planets Sun Sun Sun
Статистика раздачи
Автор: PriZraK | Размер: 10.92 ГБ | Добавлен: 15 фев 2014
Раздают: 40    Качают: 3
Скачать торрент
Скачать торрент
Описание торрента

СообщениеДобавлено: 15 фев 2014 




Информация о фильме
Оригинальное название: Звезда пленительного счастья
Год выхода: 1975
Жанр: Исторический, драма, мелодрама, биография
Режиссер: Владимир Мотыль
В ролях: Ирина Купченко, Алексей Баталов, Наталья Бондарчук, Олег Стриженов, Эва Шикульска, Игорь Костолевский, Лев Иванов, Раиса Куркина, Татьяна Панкова, Александр Пороховщиков, Виктор Костецкий, Юрий Родионов, Олег Янковский, Татьяна Фёдорова, Василий Ливанов, Иннокентий Смоктуновский, Владислав Стржельчик, Дмитрий Шилко, Игорь Дмитриев, Борис Дубенский, Виктор Терехов, Пётр Меркурьев, Аркадий Трусов, Михаил Кокшенов, Алексей Кожевников, Станислав Соколов, Дмитрий Бессонов, Олег Даль, Булат Окуджава, Иван Матвеев, Борислав Брондуков

О фильме:Фильм рассказывает о подвиге жен декабристов ("Женщинам России посвящается"), последовавших в сибирскую ссылку за своими мужьями - участниками декабрьского восстания 1825 года.



Страна: СССР
Студия: Ленфильм, Второе творческое объединение
Продолжительность: 01:24:32 + 01:20:41

Файл
Кодек: MPEG-4 AVC
Качество: BDRip 720p
Видео: 7500 Кбит/с, 988x720, 23.976 кадр/с
Звук:
Аудио #1: Русский (AC3, 6 ch, 448 Кбит/с)
Аудио #2: Русский (DTS, 6 ch, 1510 Кбит/с)

Семпл

Общее
Уникальный идентификатор : 243619572743672813869669268103814514372 (0xB7476C4AF23229C5A5239A5793F106C4)
Полное имя : F:3Films FРелизыZvezda.plenitelnogo.schastja.1975.x264.BDRip.720p.MediaClubZvezda.plenitelnogo.schastja.1.1975.x264.BDRip.720p.MediaClub.mkv
Формат : Matroska
Версия формата : Version 2
Размер файла : 5,59 Гбайт
Продолжительность : 1 ч. 24 м.
Общий поток : 9459 Кбит/сек
Дата кодирования : UTC 2013-12-16 07:01:19
Программа кодирования : mkvmerge v5.4.0 ('Piper') built on Mar 10 2012 13:34:39
Библиотека кодирования : libebml v1.2.3 + libmatroska v1.3.0

Видео
Идентификатор : 1
Формат : AVC
Формат/Информация : Advanced Video Codec
Профиль формата : High@L4.1
Параметр CABAC формата : Да
Параметр ReFrames формата : 8 кадров
Идентификатор кодека : V_MPEG4/ISO/AVC
Продолжительность : 1 ч. 24 м.
Битрейт : 7500 Кбит/сек
Ширина : 988 пикселей
Высота : 720 пикселей
Соотношение сторон : 1,372
Режим частоты кадров : Постоянный
Частота кадров : 23,976 кадра/сек
Цветовое пространство : YUV
Субдискретизация насыщенности : 4:2:0
Битовая глубина : 8 бит
Тип развёртки : Прогрессивная
Бит/(Пиксели*Кадры) : 0.440
Размер потока : 4,32 Гбайт (77%)
Заголовок : Zvezda.plenitelnogo.schastja.1.1975.x264.BDRip.720p.MediaClub
Библиотека кодирования : x264 core 130 r2273 b3065e6
Настройки программы : cabac=1 / ref=8 / deblock=1:-3:-3 / analyse=0x3:0x133 / me=umh / subme=11 / psy=1 / psy_rd=1.00:0.20 / mixed_ref=1 / me_range=32 / chroma_me=1 / trellis=2 / 8x8dct=1 / cqm=0 / deadzone=21,11 / fast_pskip=0 / chroma_qp_offset=-3 / threads=6 / lookahead_threads=1 / sliced_threads=0 / nr=0 / decimate=0 / interlaced=0 / bluray_compat=0 / constrained_intra=0 / bframes=8 / b_pyramid=2 / b_adapt=2 / b_bias=0 / direct=3 / weightb=1 / open_gop=0 / weightp=2 / keyint=240 / keyint_min=23 / scenecut=40 / intra_refresh=0 / rc=2pass / mbtree=0 / bitrate=7500 / ratetol=1.0 / qcomp=0.60 / qpmin=0 / qpmax=69 / qpstep=4 / cplxblur=20.0 / qblur=0.5 / ip_ratio=1.40 / pb_ratio=1.30 / aq=1:1.00
Язык : Russian
Default : Да
Forced : Да

Аудио #1
Идентификатор : 2
Формат : AC-3
Формат/Информация : Audio Coding 3
Расширение режима : CM (complete main)
Параметр Endianness формата : Big
Идентификатор кодека : A_AC3
Продолжительность : 1 ч. 24 м.
Вид битрейта : Постоянный
Битрейт : 448 Кбит/сек
Каналы : 6 каналов
Расположение каналов : Front: L C R, Side: L R, LFE
Частота : 48,0 КГц
Битовая глубина : 16 бит
Метод сжатия : С потерями
Размер потока : 271 Мбайт (5%)
Заголовок : TRACK_01_RUS
Язык : Russian
Default : Да
Forced : Да

Аудио #2
Идентификатор : 3
Формат : DTS
Формат/Информация : Digital Theater Systems
Режим : 16
Параметр Endianness формата : Big
Идентификатор кодека : A_DTS
Продолжительность : 1 ч. 24 м.
Вид битрейта : Постоянный
Битрейт : 1509 Кбит/сек
Каналы : 6 каналов
Расположение каналов : Front: L C R, Side: L R, LFE
Частота : 48,0 КГц
Битовая глубина : 24 бит
Метод сжатия : С потерями
Размер потока : 912 Мбайт (16%)
Заголовок : TRACK_02_RUS
Язык : Russian
Default : Нет
Forced : Нет

Общее
Уникальный идентификатор : 245975054308748239835157231794314447151 (0xB90D12800F829E4BA0F7F59ABE0E892F)
Полное имя : F:3Films FРелизыZvezda.plenitelnogo.schastja.1975.x264.BDRip.720p.MediaClubZvezda.plenitelnogo.schastja.2.1975.x264.BDRip.720p.MediaClub.mkv
Формат : Matroska
Версия формата : Version 2
Размер файла : 5,33 Гбайт
Продолжительность : 1 ч. 20 м.
Общий поток : 9459 Кбит/сек
Название фильма : -= MediaClub =- rip by Lefevr
Дата кодирования : UTC 2013-12-16 06:46:47
Программа кодирования : mkvmerge v5.4.0 ('Piper') built on Mar 10 2012 13:34:39
Библиотека кодирования : libebml v1.2.3 + libmatroska v1.3.0

Видео
Идентификатор : 1
Формат : AVC
Формат/Информация : Advanced Video Codec
Профиль формата : High@L4.1
Параметр CABAC формата : Да
Параметр ReFrames формата : 8 кадров
Идентификатор кодека : V_MPEG4/ISO/AVC
Продолжительность : 1 ч. 20 м.
Битрейт : 7500 Кбит/сек
Ширина : 988 пикселей
Высота : 720 пикселей
Соотношение сторон : 1,372
Режим частоты кадров : Постоянный
Частота кадров : 23,976 кадра/сек
Цветовое пространство : YUV
Субдискретизация насыщенности : 4:2:0
Битовая глубина : 8 бит
Тип развёртки : Прогрессивная
Бит/(Пиксели*Кадры) : 0.440
Размер потока : 4,12 Гбайт (77%)
Библиотека кодирования : x264 core 130 r2273 b3065e6
Настройки программы : cabac=1 / ref=8 / deblock=1:-3:-3 / analyse=0x3:0x133 / me=umh / subme=11 / psy=1 / psy_rd=1.00:0.20 / mixed_ref=1 / me_range=32 / chroma_me=1 / trellis=2 / 8x8dct=1 / cqm=0 / deadzone=21,11 / fast_pskip=0 / chroma_qp_offset=-3 / threads=6 / lookahead_threads=1 / sliced_threads=0 / nr=0 / decimate=0 / interlaced=0 / bluray_compat=0 / constrained_intra=0 / bframes=8 / b_pyramid=2 / b_adapt=2 / b_bias=0 / direct=3 / weightb=1 / open_gop=0 / weightp=2 / keyint=240 / keyint_min=23 / scenecut=40 / intra_refresh=0 / rc=2pass / mbtree=0 / bitrate=7500 / ratetol=1.0 / qcomp=0.60 / qpmin=0 / qpmax=69 / qpstep=4 / cplxblur=20.0 / qblur=0.5 / ip_ratio=1.40 / pb_ratio=1.30 / aq=1:1.00
Язык : English
Default : Да
Forced : Нет

Аудио #1
Идентификатор : 2
Формат : AC-3
Формат/Информация : Audio Coding 3
Расширение режима : CM (complete main)
Параметр Endianness формата : Big
Идентификатор кодека : A_AC3
Продолжительность : 1 ч. 20 м.
Вид битрейта : Постоянный
Битрейт : 448 Кбит/сек
Каналы : 6 каналов
Расположение каналов : Front: L C R, Side: L R, LFE
Частота : 48,0 КГц
Битовая глубина : 16 бит
Метод сжатия : С потерями
Размер потока : 259 Мбайт (5%)
Заголовок : TRACK_01_RUS
Язык : Russian
Default : Да
Forced : Да

Аудио #2
Идентификатор : 3
Формат : DTS
Формат/Информация : Digital Theater Systems
Режим : 16
Параметр Endianness формата : Big
Идентификатор кодека : A_DTS
Продолжительность : 1 ч. 20 м.
Вид битрейта : Постоянный
Битрейт : 1509 Кбит/сек
Каналы : 6 каналов
Расположение каналов : Front: L C R, Side: L R, LFE
Частота : 48,0 КГц
Битовая глубина : 24 бит
Метод сжатия : С потерями
Размер потока : 871 Мбайт (16%)
Заголовок : TRACK_02_RUS
Язык : Russian
Default : Нет
Forced : Нет

x264 [info]: frame I:717 Avg QP:16.17 size:153109
x264 [info]: frame P:27228 Avg QP:18.78 size: 83235
x264 [info]: frame B:93671 Avg QP:20.32 size: 25398

x264 [info]: frame I:676 Avg QP:16.00 size:157231
x264 [info]: frame P:25297 Avg QP:18.51 size: 85081
x264 [info]: frame B:90086 Avg QP:20.07 size: 25301

• За помощь в подготовке релиза спасибо Константину - Painter и Виталию - neni

• За исходник спасибо HDClub




Релиз от: | Автор рипа:



   Похожие торренты   Торрент   Размер 
В этой теме нет новых непрочитанных сообщений. Звезда пленительного счастья (1975) BDRip-AVC от MediaClub

37 | 6

4.5 ГБ

В этой теме нет новых непрочитанных сообщений. Звезда пленительного счастья (1975) BDRip от MediaClub

32 | 5

2.75 ГБ

В этой теме нет новых непрочитанных сообщений. Звезда пленительного счастья (1975) BDRip от HQCLUB

536 | 112

2.9 ГБ

В этой теме нет новых непрочитанных сообщений. Звезда пленительного счастья (1975) DVDRip от Киномагия

99 | 9

2.05 ГБ

В этой теме нет новых непрочитанных сообщений. Уральский Гарнизон, Хорс - Звезда пленительного счастья [EP] (2015) МР3

10 | 1

30.55 МБ

В этой теме нет новых непрочитанных сообщений. Рок-звезда / Rock Star (2001) BDRip 720p от MediaClub | D, P2, A

39 | 8

6.52 ГБ

В этой теме нет новых непрочитанных сообщений. Тайны века. Валентина Терешкова. Звезда космического счастья (2012) SATRip от ExKinoRay

68 | 15

652.14 МБ




Вы не можете начинать темы
Вы не можете отвечать на сообщения
Вы не можете редактировать свои сообщения
Вы не можете удалять свои сообщения
Вы не можете добавлять вложения

Перейти:  
Для Мосгорсуда, Роскомнадзора и рекламодателей: mosgorsud-torrent[собачка]yandex.ru
 Вход
ppkBB3cker v.2 © 2008-2014 @ PPK
[ Time : 0.052s | 14 Queries | GZIP : On ]

Торрент трекер RUTOR.IN, Не можете зайти на rutor.org? Какой новый адрес рутор? Какое зеркало рутор? Не работает rutor.org и зеркала? Тогда наш торрент специально для вас. Rutor.in неофициальное зеркало rutor. В случае если у Вас заблокирован rutor или вдруг Вы не можете на него зайти, то Вы без труда сможете скачать бесплатно и без рекламы последние новинки кино, игр, сериалов и прочего у нас, на Rutor.in. Не нужно использовать прокси, чтобы зайти на рутор, достаточно воспользоваться нашим ресурсом. Все новые фильмы, игры, сериалы, книги и музыка за 2013 и 2014 годы через торрент бесплатно. Скачивайте фильмы в хорошем качестве, игры для пк, xbox, playstation без регистрации. У нас вы найдете новые Зарубежные сериалы и Русские сериалы 2013, 2014, 2015 годов. Оставайтесь с нами, качайте любимые фильмы, игры, сериалы, книги и музыку.