img image001 image001 image001 image001 image001 image001 image001 image001 image001 image001 image001 image001 image001 image001 image001

Planets Sun Sun Sun
Статистика раздачи
Автор: PriZraK | Размер: 2.19 ГБ | Добавлен: 15 фев 2014
Раздают: 40    Качают: 3
Скачать торрент
Скачать торрент
Описание торрента

СообщениеДобавлено: 15 фев 2014 


#77
Страна: СССР
Производство: Азербайджанфильм

Жанр: мюзикл, боевик, мелодрама, комедия, приключения
Год выпуска: 1981
Продолжительность: 02:24:10

Перевод: не требуется
Оригинальная аудиодорожка: русский
Cубтитры: нет

Режиссер: Юлий Гусман

В ролях:
Мухтарбек Кантемиров, Полад Бюль-бюль оглы, Лев Дуров, Гамида Омарова, Гасанага Турабов, Сергей Юрский, Мирза Бабаев, Александр Шаровский, Мухтар Маниев, Кязим Абдуллаев...

Описание:
Начало XX века. Российская империя, Азербайджан. Двое цирковых актеров, Сан Саныч (Лев Дуров) и Рустам, приезжают на родину Рустама, узнав о болезни его бабушки. В ожидании лошадей, которые отвезут их в деревню Рустама, друзья идут в местный театр, где из-за папахи местного бандита Джафара (большого любителя музыки) у них с бандитом происходит стычка, за которую Джафар решает отомстить. По дороге в деревню за друзьями гонятся бандиты. Оторваться удаётся, лишь разрушив мост через бурную речку. Увидеть бабушку живой Рустаму не удаётся — они успевают только на её похороны. Несмотря на то, что на дворе уже почти XX век, и различные новшества добрались даже сюда, горцы живут старыми обычаями и порядками. Выясняется, что местные жители до сих пор помнят, как Рустам «не отомстил и сбежал как трус» — отказался следовать обычаю кровной мести и не стал убивать своего кровника...





Исходник: DVD9 R5
Тип релиза: DVDRip
Контейнер: AVI

Видео: 720x544 (4:3), 25 fps, XviD ~ 1777 kbps avg, 0.182 bit/pixel
Аудио: 48 kHz, Dolby AC3 5.1, 384 kbps

Раздача от:
Общее
Полное имя : Ne.boysya.ya.s.toboy.1981.DVDRip_[New-team]_by_AVP_Studio.avi
Формат : AVI
Формат/Информация : Audio Video Interleave
Профиль формата : OpenDML
Размер файла : 2,19 Гбайт
Продолжительность : 2 ч. 24 м.
Общий поток : 2174 Кбит/сек
Программа кодирования : VirtualDubModRus 1.5.10.2 (build 2542/release)
Библиотека кодирования : VirtualDubMod build 2542/release

Видео
Идентификатор : 0
Формат : MPEG-4 Visual
Профиль формата : Advanced Simple@L5
Параметр BVOP формата : 1
Параметр QPel формата : Нет
Параметр GMC формата : Без точки перехода
Параметр матрицы формата : Выборочная
Идентификатор кодека : XVID
Идентификатор кодека/Подсказка : XviD
Продолжительность : 2 ч. 24 м.
Битрейт : 1777 Кбит/сек
Ширина : 720 пикселей
Высота : 544 пикселя
Соотношение сторон : 4:3
Частота кадров : 25,000 кадров/сек
Цветовое пространство : YUV
Субдискретизация насыщенности : 4:2:0
Битовая глубина : 8 бит
Тип развёртки : Прогрессивная
Метод сжатия : С потерями
Бит/(Пиксели*Кадры) : 0.182
Размер потока : 1,79 Гбайт (82%)
Библиотека кодирования : XviD 73

Аудио
Идентификатор : 1
Формат : AC-3
Формат/Информация : Audio Coding 3
Расширение режима : CM (complete main)
Идентификатор кодека : 2000
Продолжительность : 2 ч. 24 м.
Вид битрейта : Постоянный
Битрейт : 384 Кбит/сек
Каналы : 6 каналов
Расположение каналов : Front: L C R, Side: L R, LFE
Частота : 48,0 КГц
Битовая глубина : 16 бит
Метод сжатия : С потерями
Размер потока : 396 Мбайт (18%)
Выравнивание : Разделение по промежуткам
Продолжительность промежутка : 40 мс. (1,00 видеокадр)
Время предзагрузки промежутка : 500 мс





   Похожие торренты   Торрент   Размер 
В этой теме нет новых непрочитанных сообщений. Не бойся, я с тобой! (1981) DVDRip от New-Team

161 | 24

1.46 ГБ

В этой теме нет новых непрочитанных сообщений. Не бойся, я с тобой! (1981) DVDRip-AVC от New-Team

18 | 5

2.19 ГБ

В этой теме нет новых непрочитанных сообщений. Не бойся, я с тобой! (1981) HDTVRip-AVC от New-Team

602 | 61

2.18 ГБ

В этой теме нет новых непрочитанных сообщений. Не бойся, я с тобой! (1981) HDTVRip от New-Team

99 | 23

2.18 ГБ

В этой теме нет новых непрочитанных сообщений. Не бойся, я с тобой! (1981) HDTVRip от New-Team

475 | 21

977.64 МБ

В этой теме нет новых непрочитанных сообщений. Не бойся, я с тобой! (1981) DVDRip

0 | 2

2.1 ГБ

В этой теме нет новых непрочитанных сообщений. Не бойся, я с тобой! (1981) HDTVRip

63 | 4

1.45 ГБ




Вы не можете начинать темы
Вы не можете отвечать на сообщения
Вы не можете редактировать свои сообщения
Вы не можете удалять свои сообщения
Вы не можете добавлять вложения

Перейти:  
Для Мосгорсуда, Роскомнадзора и рекламодателей: mosgorsud-torrent[собачка]yandex.ru
 Вход
ppkBB3cker v.2 © 2008-2014 @ PPK
[ Time : 2.516s | 14 Queries | GZIP : Off ]

Торрент трекер RUTOR.IN, Не можете зайти на rutor.org? Какой новый адрес рутор? Какое зеркало рутор? Не работает rutor.org и зеркала? Тогда наш торрент специально для вас. Rutor.in неофициальное зеркало rutor. В случае если у Вас заблокирован rutor или вдруг Вы не можете на него зайти, то Вы без труда сможете скачать бесплатно и без рекламы последние новинки кино, игр, сериалов и прочего у нас, на Rutor.in. Не нужно использовать прокси, чтобы зайти на рутор, достаточно воспользоваться нашим ресурсом. Все новые фильмы, игры, сериалы, книги и музыка за 2013 и 2014 годы через торрент бесплатно. Скачивайте фильмы в хорошем качестве, игры для пк, xbox, playstation без регистрации. У нас вы найдете новые Зарубежные сериалы и Русские сериалы 2013, 2014, 2015 годов. Оставайтесь с нами, качайте любимые фильмы, игры, сериалы, книги и музыку.